<?xml version="1.0" standalone="no"?>
<!DOCTYPE svg PUBLIC "-//W3C//DTD SVG 1.1//EN" "http://www.w3.org/Graphics/SVG/1.1/DTD/svg11.dtd" >
<svg xmlns="http://www.w3.org/2000/svg" xmlns:xlink="http://www.w3.org/1999/xlink" version="1.1">
<metadata>
Created by FontForge 20190801 at Tue May 15 20:49:10 2018
 By www-data
Copyright (c) 2018 by atipo. All rights reserved.
</metadata>
<defs>
<font id="BasierSquareMedium" horiz-adv-x="583" >
  <font-face 
    font-family="BasierSquareMedium"
    font-weight="500"
    font-stretch="normal"
    units-per-em="1000"
    panose-1="0 0 6 0 0 0 0 0 0 0"
    ascent="800"
    descent="-200"
    x-height="516"
    cap-height="700"
    bbox="-179 -245 1155 977"
    underline-thickness="50"
    underline-position="-250"
    unicode-range="U+0020-25FC"
  />
<missing-glyph horiz-adv-x="940" 
 />
    <glyph glyph-name=".notdef" horiz-adv-x="940" 
 />
    <glyph glyph-name=".null" horiz-adv-x="0" 
 />
    <glyph glyph-name="nonmarkingreturn" horiz-adv-x="333" 
 />
    <glyph glyph-name="space" unicode=" " horiz-adv-x="291" 
 />
    <glyph glyph-name="exclam" unicode="!" horiz-adv-x="266" 
d="M170 222h-77l-21 382v96h124v-96zM199 0h-132v130h132v-130z" />
    <glyph glyph-name="quotedbl" unicode="&#x22;" horiz-adv-x="425" 
d="M156 431h-76l-20 152v117h116v-117zM344 431h-75l-20 152v117h116v-117z" />
    <glyph glyph-name="numbersign" unicode="#" horiz-adv-x="694" 
d="M644 516v-100h-126l-24 -137h100v-100h-117l-30 -179h-102l30 179h-122l-30 -179h-102l30 179h-101v100h118l24 137h-92v100h109l31 184h102l-31 -184h122l31 184h102l-31 -184h109zM270 279h122l24 137h-122z" />
    <glyph glyph-name="dollar" unicode="$" horiz-adv-x="632" 
d="M590 198q0 -89 -60 -142.5t-172 -62.5v-83h-81v82q-112 10 -173.5 70.5t-66.5 160.5h119q4 -52 35.5 -84t85.5 -40v212l-18 4q-100 22 -149.5 69t-49.5 129q0 81 58 133.5t159 60.5v83h81v-83q98 -10 159 -70q60 -58 61 -145h-119q-5 90 -101 107v-189l20 -4
q212 -44 212 -208zM181 513q0 -63 96 -86v174q-96 -12 -96 -88zM358 294v-196q111 14 111 98q0 39 -26 62t-82 35z" />
    <glyph glyph-name="percent" unicode="%" horiz-adv-x="850" 
d="M213 348q-74 0 -115 49.5t-41 132.5t41 132.5t115 49.5t114.5 -49.5t40.5 -132.5t-40.5 -132.5t-114.5 -49.5zM237 0h-101v10l474 690h99v-10zM213 427q70 0 70 103t-70 103q-71 0 -71 -103t71 -103zM637 355q74 0 115 -49.5t41 -132.5t-41 -132.5t-115 -49.5t-115 49.5
t-41 132.5t41 132.5t115 49.5zM567 173q0 -103 70 -103t70 103t-70 103t-70 -103z" />
    <glyph glyph-name="ampersand" unicode="&#x26;" horiz-adv-x="731" 
d="M567 398h123v-10l-156 -218l149 -160v-10h-141l-75 82q-81 -91 -195 -91q-92 0 -154 53q-62 54 -62 145q0 107 127 182l12 7l-3 4q-74 80 -74 159q0 73 52 119q52 47 135 49h2q86 0 139 -47q52 -46 52 -120q0 -60 -30 -97q-27 -35 -98 -77l-13 -8l104 -111zM285 437l3 -4
l15 9q47 26 64.5 45.5t17.5 50.5q0 34 -20.5 53.5t-58.5 19.5h-2q-33 -1 -54 -21t-21 -50q0 -47 56 -103zM279 95q65 0 117 64l-133 146l-16 -10q-73 -43 -73 -104q1 -43 29.5 -69.5t75.5 -26.5z" />
    <glyph glyph-name="quotesingle" unicode="'" horiz-adv-x="236" 
d="M156 431h-76l-20 152v117h116v-117z" />
    <glyph glyph-name="parenleft" unicode="(" horiz-adv-x="365" 
d="M208 759h88v-10q-150 -197 -150 -453t150 -453v-10h-88q-73 84 -121 204t-48 259q0 267 169 463z" />
    <glyph glyph-name="parenright" unicode=")" horiz-adv-x="365" 
d="M69 759h88q169 -196 169 -463q0 -139 -48 -259t-121 -204h-88v10q150 197 150 453t-150 453v10z" />
    <glyph glyph-name="asterisk" unicode="*" horiz-adv-x="486" 
d="M292 365h-93l15 125l-4 3l-102 -73l-42 83l120 37v4l-120 38l42 83l101 -73l4 4l-14 124h93l-15 -124l4 -4l101 73l43 -83l-121 -38v-4l121 -37l-43 -83l-102 73l-4 -3z" />
    <glyph glyph-name="plus" unicode="+" horiz-adv-x="485" 
d="M297 66h-106v198h-186v98h186v198h106v-198h183v-98h-183v-198z" />
    <glyph glyph-name="comma" unicode="," horiz-adv-x="238" 
d="M119 -138h-90v10l31 235h129v-10z" />
    <glyph glyph-name="hyphen" unicode="-" horiz-adv-x="466" 
d="M386 241h-306v104h306v-104z" />
    <glyph glyph-name="period" unicode="." horiz-adv-x="241" 
d="M186 0h-132v130h132v-130z" />
    <glyph glyph-name="slash" unicode="/" horiz-adv-x="418" 
d="M121 -133h-106v10l281 860h107v-10z" />
    <glyph glyph-name="zero" unicode="0" horiz-adv-x="628" 
d="M57 352q0 165 62 263q63 97 195 97q133 0 194 -97q63 -97 63 -263t-63 -264q-61 -97 -194 -97q-132 0 -195 97q-62 98 -62 264zM454 352q0 129 -32.5 193.5t-107.5 64.5t-107.5 -64.5t-32.5 -193.5q0 -130 32.5 -194.5t107.5 -64.5t107.5 64.5t32.5 194.5z" />
    <glyph glyph-name="one" unicode="1" horiz-adv-x="425" 
d="M336 0h-115v579h-4l-161 -123h-10v112l174 132h116v-700z" />
    <glyph glyph-name="two" unicode="2" horiz-adv-x="569" 
d="M517 0h-463v92l235 253q64 70 79 95q21 32 21 71q0 46 -28.5 72.5t-79.5 26.5q-54 0 -85 -31t-31 -88h-113q0 101 61 161t168 60q102 0 163 -55q62 -56 62 -142q0 -55 -28 -102q-31 -51 -97 -121l-172 -184v-4h308v-104z" />
    <glyph glyph-name="three" unicode="3" horiz-adv-x="603" 
d="M301 -9q-111 0 -180 57q-68 57 -68 157h114q0 -50 34.5 -81.5t98.5 -31.5q61 0 94.5 29.5t33.5 80.5q0 54 -35 83t-103 29h-61v101h59q54 0 86 27.5t32 73.5q0 42 -29 68.5t-82 26.5q-56 0 -86 -29t-31 -80h-115q2 98 65 154t170 56q97 0 161 -52q65 -51 65 -134
q0 -113 -101 -151v-4q56 -17 89.5 -62t33.5 -105q0 -92 -64 -153q-63 -60 -181 -60z" />
    <glyph glyph-name="four" unicode="4" horiz-adv-x="588" 
d="M464 0h-115v139h-314v114l279 447h150v-459h90v-102h-90v-139zM147 245v-4h202v329h-4z" />
    <glyph glyph-name="five" unicode="5" horiz-adv-x="594" 
d="M296 -9q-108 0 -176 60q-67 61 -67 151h115q2 -48 36 -78.5t92 -30.5q64 0 97 37.5t33 100.5q0 60 -33.5 97t-95.5 37q-74 0 -119 -61h-114l27 396h409v-103h-313l-13 -184h4q50 48 136 48q104 0 166 -65t62 -163q0 -110 -65 -176t-181 -66z" />
    <glyph glyph-name="six" unicode="6" horiz-adv-x="618" 
d="M314 -9q-130 0 -194 93q-63 94 -63 255q0 165 66 269q68 104 201 104q97 0 158 -54q61 -52 72 -136h-112q-7 40 -38.5 63.5t-79.5 23.5q-77 0 -116.5 -61.5t-39.5 -171.5h4q52 81 160 81q106 0 167 -67q62 -68 62 -161q0 -104 -67 -171t-180 -67zM315 93q59 0 95 37
t36 97t-35 97t-96 37q-60 0 -96 -37t-36 -96q0 -61 36 -98t96 -37z" />
    <glyph glyph-name="seven" unicode="7" horiz-adv-x="541" 
d="M212 0h-119v10l298 581v4h-359v105h477v-110z" />
    <glyph glyph-name="eight" unicode="8" horiz-adv-x="602" 
d="M435 373v-4q115 -45 115 -171q0 -96 -67 -151t-182 -56q-115 1 -182 56t-67 151q0 126 115 171v4q-94 45 -94 154q0 84 62 134q63 50 166 51q103 -2 165 -51q63 -49 63 -134q0 -109 -94 -154zM189 516q0 -44 30.5 -71t81.5 -27t81.5 27t30.5 71q0 45 -29.5 70.5
t-82.5 25.5t-82.5 -25.5t-29.5 -70.5zM301 91q63 1 97.5 30.5t34.5 83.5q0 52 -34 82t-98 31q-64 -1 -98 -31t-34 -82q0 -54 34.5 -83.5t97.5 -30.5z" />
    <glyph glyph-name="nine" unicode="9" horiz-adv-x="618" 
d="M293 -9q-97 0 -159 53q-60 53 -71 137h113q6 -40 37.5 -63.5t79.5 -23.5q77 0 117 62t40 171h-4q-52 -81 -161 -81q-106 0 -167 67t-61 161q0 103 67 170q68 68 180 68q130 0 193 -94q64 -92 64 -254q0 -106 -27 -189q-27 -84 -90 -134t-151 -50zM303 342q60 0 96 37
t36 96q0 60 -36 97.5t-96 37.5q-59 0 -95 -37t-36 -97t35 -97t96 -37z" />
    <glyph glyph-name="colon" unicode=":" horiz-adv-x="241" 
d="M186 339h-132v130h132v-130zM186 0h-132v130h132v-130z" />
    <glyph glyph-name="semicolon" unicode=";" horiz-adv-x="238" 
d="M186 339h-132v130h132v-130zM119 -138h-90v10l31 235h129v-10z" />
    <glyph glyph-name="less" unicode="&#x3c;" horiz-adv-x="520" 
d="M479 100v-112l-438 247v98l438 247v-112l-327 -182v-4z" />
    <glyph glyph-name="equal" unicode="=" horiz-adv-x="485" 
d="M480 360h-475v98h475v-98zM480 157h-475v98h475v-98z" />
    <glyph glyph-name="greater" unicode="&#x3e;" horiz-adv-x="520" 
d="M479 235l-438 -247v112l327 182v4l-327 182v112l438 -247v-98z" />
    <glyph glyph-name="question" unicode="?" horiz-adv-x="543" 
d="M314 222h-110v16q0 59 20 91q22 34 70 72l32 25q51 40 52 92q0 40 -27 65.5t-77 25.5q-54 0 -82.5 -29t-28.5 -81h-116q0 93 58 151q58 60 169 60q100 0 161 -52t61 -135q0 -95 -76 -153l-42 -33q-38 -29 -51 -48q-13 -17 -13 -51v-16zM325 0h-132v130h132v-130z" />
    <glyph glyph-name="at" unicode="@" horiz-adv-x="903" 
d="M462 -100q-181 0 -296 107q-114 107 -114 297q0 178 119 291q120 114 300 114q165 0 272 -96t107 -255q0 -123 -50 -193.5t-140 -70.5q-41 0 -70 18.5t-35 49.5h-4q-41 -65 -125 -65q-74 0 -118.5 54.5t-44.5 142.5q0 89 46 145q47 57 125 57q33 0 63.5 -16.5t44.5 -43.5
h4l7 49h81l-9 -256q-1 -54 47 -54q44 0 68.5 50t24.5 133q0 123 -81 196q-81 75 -216 75q-144 0 -236 -95q-91 -94 -91 -236q0 -147 88 -232t234 -85q121 0 205 35v-79q-81 -37 -206 -37zM443 180q47 0 72 34t25 90q0 51 -24.5 81t-66.5 30q-44 0 -68.5 -33t-24.5 -89
q0 -52 23 -82.5t64 -30.5z" />
    <glyph glyph-name="A" unicode="A" horiz-adv-x="691" 
d="M271 700h147l251 -690v-10h-128l-55 162h-286l-55 -162h-124v10zM341 577l-106 -312h216l-106 312h-4z" />
    <glyph glyph-name="B" unicode="B" horiz-adv-x="666" 
d="M401 0h-314v700h304q94 0 150.5 -49t56.5 -133q0 -99 -80 -143v-4q106 -45 106 -169q0 -95 -59.5 -148.5t-163.5 -53.5zM203 596v-183h166q110 0 110 96q0 42 -26.5 64.5t-76.5 22.5h-173zM203 311v-206h181q57 0 88.5 27.5t31.5 75.5q0 49 -31 76t-89 27h-181z" />
    <glyph glyph-name="C" unicode="C" horiz-adv-x="709" 
d="M369 -9q-154 0 -238 98q-84 99 -84 260q0 162 84 261t238 99q126 0 205 -71q77 -70 88 -185h-120q-7 68 -52 108t-121 40q-103 0 -152 -70q-50 -70 -50 -182q0 -117 51.5 -184t150.5 -67q148 0 174 142h119q-14 -111 -90 -180q-77 -69 -203 -69z" />
    <glyph glyph-name="D" unicode="D" horiz-adv-x="704" 
d="M323 0h-236v700h236q151 0 243 -96q91 -95 91 -254q0 -151 -89 -251q-88 -99 -245 -99zM200 594v-489h114q107 0 165 65t58 180q0 114 -58 179t-165 65h-114z" />
    <glyph glyph-name="E" unicode="E" horiz-adv-x="610" 
d="M559 0h-472v700h472v-106h-355v-180h324v-106h-324v-203h355v-105z" />
    <glyph glyph-name="F" unicode="F" horiz-adv-x="604" 
d="M204 0h-117v700h465v-106h-348v-198h316v-106h-316v-290z" />
    <glyph glyph-name="G" unicode="G" horiz-adv-x="718" 
d="M367 -9q-154 0 -237 98t-83 259q0 162 83 262q84 99 237 99q126 0 205 -68q80 -67 90 -174h-120q-9 62 -53.5 98t-121.5 36q-99 0 -149.5 -67.5t-50.5 -185.5q0 -117 50.5 -183.5t149.5 -66.5q84 0 132.5 46.5t53.5 123.5h-166v104h284v-67q0 -143 -83 -229
q-82 -85 -221 -85z" />
    <glyph glyph-name="H" unicode="H" horiz-adv-x="735" 
d="M531 415v285h117v-700h-117v308h-327v-308h-117v700h117v-285h327z" />
    <glyph glyph-name="I" unicode="I" horiz-adv-x="292" 
d="M205 0h-118v700h118v-700z" />
    <glyph glyph-name="J" unicode="J" horiz-adv-x="538" 
d="M239 -9q-101 0 -160 59q-58 59 -58 154h116q1 -49 27.5 -76.5t76.5 -27.5t76 29t26 81v490h118v-490q0 -100 -59.5 -159.5t-162.5 -59.5z" />
    <glyph glyph-name="K" unicode="K" horiz-adv-x="650" 
d="M629 690l-308 -323l319 -357v-10h-139l-297 333v-333h-117v700h117v-301l287 301h138v-10z" />
    <glyph glyph-name="L" unicode="L" horiz-adv-x="552" 
d="M534 0h-447v700h117v-594h330v-106z" />
    <glyph glyph-name="M" unicode="M" horiz-adv-x="880" 
d="M200 0h-113v700h133l219 -382h4l219 382h131v-700h-113v514h-4l-231 -396h-10l-231 399h-4v-517z" />
    <glyph glyph-name="N" unicode="N" horiz-adv-x="743" 
d="M202 0h-115v700h134l315 -514h4v514h116v-700h-135l-315 511h-4v-511z" />
    <glyph glyph-name="O" unicode="O" horiz-adv-x="740" 
d="M370 -9q-159 0 -241 100t-82 259t82 259t241 100q158 0 240 -100q83 -101 83 -259t-83 -259q-82 -100 -240 -100zM370 601q-104 0 -154 -69q-49 -68 -49 -182q0 -117 51.5 -184t151.5 -67t151.5 67t51.5 184t-51.5 184t-151.5 67z" />
    <glyph glyph-name="P" unicode="P" horiz-adv-x="649" 
d="M204 0h-117v700h284q107 0 168 -63q63 -63 63 -162q0 -101 -63 -166q-63 -64 -168 -64h-167v-245zM204 595v-244h147q63 0 97 32t34 92q0 57 -35 88.5t-96 31.5h-147z" />
    <glyph glyph-name="Q" unicode="Q" horiz-adv-x="740" 
d="M693 350q0 -181 -103 -280l94 -133v-10h-121l-62 87q-60 -23 -131 -23q-159 0 -241 100t-82 259t82 259t241 100q158 0 240 -100q83 -101 83 -259zM370 99q36 0 65 9l-88 125v10h121l54 -77q51 68 51 184q0 117 -51.5 184t-151.5 67q-104 0 -154 -69q-49 -68 -49 -182
q0 -117 51.5 -184t151.5 -67z" />
    <glyph glyph-name="R" unicode="R" horiz-adv-x="670" 
d="M467 278l179 -268v-10h-133l-169 264h-140v-264h-117v700h296q105 0 167 -62t62 -154q0 -75 -39 -129.5t-106 -76.5zM376 594h-172v-224h172q56 0 85.5 30t29.5 83q0 52 -30 81.5t-85 29.5z" />
    <glyph glyph-name="S" unicode="S" horiz-adv-x="632" 
d="M315 -9q-128 0 -200.5 61.5t-77.5 170.5h119q4 -61 45.5 -94t113.5 -33q154 0 154 100q0 39 -26 62t-82 35l-102 22q-100 22 -149.5 69t-49.5 129q0 89 69 142q69 54 187 54q116 0 188 -60q72 -59 74 -157h-119q-3 52 -40 81.5t-105 29.5q-133 0 -133 -90q0 -65 102 -87
l95 -20q212 -44 212 -208q0 -97 -71 -152t-204 -55z" />
    <glyph glyph-name="T" unicode="T" horiz-adv-x="592" 
d="M355 0h-118v594h-211v106h540v-106h-211v-594z" />
    <glyph glyph-name="U" unicode="U" horiz-adv-x="714" 
d="M356 -9q-127 0 -203 70t-76 199v440h117v-438q0 -78 40.5 -121.5t121.5 -43.5q82 0 122.5 43.5t40.5 121.5v438h118v-440q0 -128 -77 -199q-76 -70 -204 -70z" />
    <glyph glyph-name="V" unicode="V" horiz-adv-x="682" 
d="M407 0h-132l-254 690v10h129l190 -553h4l186 553h131v-10z" />
    <glyph glyph-name="W" unicode="W" horiz-adv-x="924" 
d="M325 0h-137l-167 690v10h121l117 -529h4l136 529h126l138 -529h4l115 529h121v-10l-168 -690h-137l-133 518h-4z" />
    <glyph glyph-name="X" unicode="X" horiz-adv-x="661" 
d="M156 0h-138v10l230 340v4l-222 336v10h137l168 -267h4l169 267h135v-10l-220 -336v-4l224 -340v-10h-138l-172 264h-4z" />
    <glyph glyph-name="Y" unicode="Y" horiz-adv-x="670" 
d="M395 0h-118v286l-256 404v10h135l179 -298h4l176 298h134v-10l-254 -403v-287z" />
    <glyph glyph-name="Z" unicode="Z" horiz-adv-x="597" 
d="M561 0h-525v103l373 486v4h-364v107h510v-105l-372 -485v-4h378v-106z" />
    <glyph glyph-name="bracketleft" unicode="[" horiz-adv-x="342" 
d="M267 -167h-226v926h224v-88h-126v-750h128v-88z" />
    <glyph glyph-name="backslash" unicode="\" horiz-adv-x="418" 
d="M403 -133h-106l-282 860v10h107l281 -860v-10z" />
    <glyph glyph-name="bracketright" unicode="]" horiz-adv-x="342" 
d="M300 -167h-225v88h128v750h-126v88h223v-926z" />
    <glyph glyph-name="asciicircum" unicode="^" horiz-adv-x="588" 
d="M153 310h-109v10l197 380h106l197 -380v-10h-109l-139 280h-4z" />
    <glyph glyph-name="underscore" unicode="_" horiz-adv-x="574" 
d="M527 -119h-480v92h480v-92z" />
    <glyph glyph-name="grave" unicode="`" horiz-adv-x="272" 
d="M239 583h-90l-116 140v10h134l72 -140v-10z" />
    <glyph glyph-name="a" unicode="a" horiz-adv-x="546" 
d="M219 -9q-83 0 -132 45q-48 46 -48 116q0 74 54 117t157 43h120v31q0 40 -26 64t-76 24q-44 0 -70 -21.5t-27 -55.5h-108q0 76 56 123.5t151 47.5q99 0 156 -51t57 -130v-344h-100l-8 61h-4q-48 -70 -152 -70zM245 82q55 0 90 32.5t35 80.5v35h-115q-102 0 -102 -74
q0 -34 24 -54t68 -20z" />
    <glyph glyph-name="b" unicode="b" horiz-adv-x="593" 
d="M191 62h-4l-13 -62h-101v740h114v-286h4q47 71 147 71q102 0 158 -74q57 -73 57 -192q0 -122 -58 -195q-57 -73 -157 -73t-147 71zM310 92q64 0 96 45t32 122q0 76 -32 120.5t-96 44.5q-62 0 -94.5 -45t-32.5 -120q0 -76 32.5 -121.5t94.5 -45.5z" />
    <glyph glyph-name="c" unicode="c" horiz-adv-x="546" 
d="M285 -9q-117 0 -182 72q-64 73 -64 195q0 124 64 195.5t179 71.5q102 0 160 -53.5t64 -143.5h-114q-4 44 -33 70t-77 26q-63 0 -95 -43.5t-32 -122.5q0 -80 32 -123.5t95 -43.5q48 0 77 25.5t34 70.5h114q-7 -91 -64.5 -143.5t-157.5 -52.5z" />
    <glyph glyph-name="d" unicode="d" 
d="M254 -9q-99 0 -157 73q-56 73 -58 195q1 119 57 192q57 74 158 74t148 -71h4v286h114v-740h-101l-13 62h-4q-47 -71 -148 -71zM282 92q62 0 95 46t33 121q0 76 -32.5 120.5t-95.5 44.5q-64 0 -95.5 -44.5t-31.5 -120.5q0 -77 31.5 -122t95.5 -45z" />
    <glyph glyph-name="e" unicode="e" horiz-adv-x="554" 
d="M283 -9q-115 0 -179 75q-65 76 -65 192t62 192q63 75 180 75q109 0 171 -71t62 -180v-48h-357q0 -65 33 -102t93 -37q94 0 113 70h111q-10 -72 -73 -119q-62 -47 -151 -47zM158 307h239q-1 55 -31 88t-85 33q-58 0 -89.5 -32.5t-33.5 -88.5z" />
    <glyph glyph-name="f" unicode="f" horiz-adv-x="395" 
d="M231 0h-114v420h-91v96h91v63q0 78 49 124.5t130 46.5h64v-98h-50q-79 0 -79 -73v-63h124v-96h-124v-420z" />
    <glyph glyph-name="g" unicode="g" 
d="M281 -238q-100 0 -163 51q-63 50 -64 131h111q3 -36 34.5 -60t81.5 -24q60 0 92.5 31t32.5 83v88h-4q-47 -71 -148 -71t-158 74q-55 73 -57 193q2 123 58 194q58 73 157 73q101 0 148 -71h4l13 62h101v-544q0 -93 -66 -151q-65 -59 -173 -59zM282 92q63 0 95.5 45
t32.5 121q0 75 -33 120.5t-95 45.5q-64 0 -95.5 -44.5t-31.5 -121.5t31.5 -121.5t95.5 -44.5z" />
    <glyph glyph-name="h" unicode="h" horiz-adv-x="591" 
d="M187 0h-114v740h114v-291h4q48 76 150 76q87 0 137 -50.5t50 -137.5v-337h-114v309q0 113 -106 113q-54 0 -87.5 -37.5t-33.5 -100.5v-284z" />
    <glyph glyph-name="i" unicode="i" horiz-adv-x="250" 
d="M192 603h-124v123h124v-123zM187 0h-114v516h114v-516z" />
    <glyph glyph-name="j" unicode="j" horiz-adv-x="259" 
d="M202 603h-124v123h124v-123zM31 -238h-52v104h38q66 0 66 73v577h114v-593q0 -78 -43.5 -119.5t-122.5 -41.5z" />
    <glyph glyph-name="k" unicode="k" horiz-adv-x="535" 
d="M511 506l-209 -224l217 -272v-10h-135l-201 254v-254h-110v740h110v-434l194 210h134v-10z" />
    <glyph glyph-name="l" unicode="l" horiz-adv-x="250" 
d="M187 0h-114v740h114v-740z" />
    <glyph glyph-name="m" unicode="m" horiz-adv-x="902" 
d="M655 525q85 0 134.5 -50.5t49.5 -137.5v-337h-114v309q0 113 -100 113q-52 0 -81 -36.5t-29 -100.5v-285h-113v309q0 113 -100 113q-52 0 -83.5 -37t-31.5 -100v-285h-114v516h101l9 -67h4q48 76 149 76q110 0 155 -81h3q50 81 161 81z" />
    <glyph glyph-name="n" unicode="n" horiz-adv-x="587" 
d="M187 0h-114v516h101l9 -67h4q48 76 151 76q86 0 136 -50.5t50 -137.5v-337h-114v309q0 113 -105 113q-54 0 -86 -37t-32 -100v-285z" />
    <glyph glyph-name="o" unicode="o" horiz-adv-x="566" 
d="M283 -9q-119 0 -182 74q-62 74 -62 193q0 118 63 192q64 75 181 75t180 -75q64 -73 64 -192q0 -120 -63 -193q-63 -74 -181 -74zM283 92q128 0 128 166q0 78 -32 122t-96 44t-96 -44t-32 -122q0 -79 33 -122.5t95 -43.5z" />
    <glyph glyph-name="p" unicode="p" horiz-adv-x="593" 
d="M187 -229h-114v745h101l13 -62h4q47 71 147 71q99 0 157 -73q58 -71 58 -194q0 -120 -57 -193q-56 -74 -158 -74q-100 0 -147 71h-4v-291zM310 92q64 0 96 44.5t32 121.5t-32 121.5t-96 44.5q-62 0 -94.5 -45.5t-32.5 -120.5t32.5 -120.5t94.5 -45.5z" />
    <glyph glyph-name="q" unicode="q" 
d="M520 -229h-114v291h-4q-47 -71 -148 -71t-158 74q-55 73 -57 193q2 123 58 194q58 73 157 73q101 0 148 -71h4l13 62h101v-745zM282 92q63 0 95.5 45t32.5 121q0 75 -33 120.5t-95 45.5q-64 0 -95.5 -44.5t-31.5 -121.5t31.5 -121.5t95.5 -44.5z" />
    <glyph glyph-name="r" unicode="r" horiz-adv-x="390" 
d="M183 0h-110v516h96l10 -82h4q16 42 51 65.5t83 23.5h42v-106h-44q-65 0 -98.5 -43t-33.5 -122v-252z" />
    <glyph glyph-name="s" unicode="s" horiz-adv-x="511" 
d="M258 -9q-101 0 -159 48.5t-60 132.5h114q0 -38 28 -60.5t77 -22.5q99 0 99 58q0 45 -68 59l-91 17q-143 29 -143 152q0 66 54 108t145 42q93 0 149.5 -47t56.5 -122h-112q-2 36 -27 56.5t-69 20.5q-39 0 -62.5 -15.5t-23.5 -43.5q0 -45 68 -56l88 -17q77 -16 113.5 -51.5
t36.5 -102.5q0 -73 -61 -115q-61 -41 -153 -41z" />
    <glyph glyph-name="t" unicode="t" horiz-adv-x="402" 
d="M357 0h-88q-153 0 -153 150v269h-85v97h90v137h109v-137h125v-97h-125v-249q0 -37 16 -53.5t51 -16.5h60v-100z" />
    <glyph glyph-name="u" unicode="u" horiz-adv-x="580" 
d="M253 -8q-86 0 -136 50t-50 138v336h114v-308q0 -114 105 -114q54 0 86 37t32 100v285h114v-516h-101l-9 68h-4q-46 -76 -151 -76z" />
    <glyph glyph-name="v" unicode="v" horiz-adv-x="535" 
d="M336 0h-134l-186 506v10h117l135 -398h4l131 398h116v-10z" />
    <glyph glyph-name="w" unicode="w" horiz-adv-x="786" 
d="M290 0h-137l-137 506v10h114l92 -380h4l99 380h137l99 -380h4l92 380h113v-10l-137 -506h-137l-99 380h-4z" />
    <glyph glyph-name="x" unicode="x" horiz-adv-x="518" 
d="M136 0h-124v10l171 250l-165 246v10h123l117 -183h4l116 183h123v-10l-165 -245l170 -251v-10h-124l-120 188h-4z" />
    <glyph glyph-name="y" unicode="y" horiz-adv-x="544" 
d="M16 506v10h119l134 -388h4l134 388h121v-10l-274 -735h-120v10l82 221l-12 2z" />
    <glyph glyph-name="z" unicode="z" horiz-adv-x="502" 
d="M456 0h-410v95l270 320v4h-269v97h407v-96l-269 -319v-4h271v-97z" />
    <glyph glyph-name="braceleft" unicode="{" horiz-adv-x="430" 
d="M146 298v-4q86 -12 86 -108v-172q0 -49 20 -70.5t67 -21.5h36v-89h-55q-81 0 -123.5 42t-42.5 121v161q0 87 -93 90v98q93 3 93 90v161q0 79 42.5 121t123.5 42h55v-89h-36q-47 0 -67 -21.5t-20 -70.5v-172q0 -96 -86 -108z" />
    <glyph glyph-name="bar" unicode="|" horiz-adv-x="274" 
d="M187 -138h-100v898h100v-898z" />
    <glyph glyph-name="braceright" unicode="}" horiz-adv-x="430" 
d="M296 596v-161q0 -87 93 -90v-98q-93 -3 -93 -90v-161q0 -79 -42.5 -121t-123.5 -42h-55v89h36q47 0 67 21.5t20 70.5v172q0 96 86 108v4q-86 12 -86 108v172q0 49 -20 70.5t-67 21.5h-36v89h55q81 0 123.5 -42t42.5 -121z" />
    <glyph glyph-name="asciitilde" unicode="~" horiz-adv-x="556" 
d="M376 208q-48 0 -97 27l-46 25q-29 15 -54 15q-55 0 -81 -57l-66 46q45 108 147 108q47 0 94 -26l46 -25q28 -16 57 -16q56 0 82 57l66 -46q-45 -108 -148 -108z" />
    <glyph glyph-name="uni00A0" unicode="&#xa0;" horiz-adv-x="291" 
 />
    <glyph glyph-name="exclamdown" unicode="&#xa1;" horiz-adv-x="266" 
d="M199 386h-132v130h132v-130zM196 -184h-124v96l21 382h77l26 -382v-96z" />
    <glyph glyph-name="cent" unicode="&#xa2;" horiz-adv-x="546" 
d="M393 277h114q-6 -82 -54 -133.5t-131 -60.5v-83h-81v84q-96 13 -149 83t-53 181q0 112 53 181.5t149 82.5v88h81v-87q83 -11 131 -63t53 -132h-114q-6 71 -70 90v-322q63 20 71 91zM155 348q0 -135 86 -161v321q-86 -26 -86 -160z" />
    <glyph glyph-name="sterling" unicode="&#xa3;" horiz-adv-x="605" 
d="M574 0h-537v102q74 2 74 80v113h-75v99h75v112q0 86 61 146q62 60 164 60q103 0 163 -62t60 -147h-111q0 48 -30.5 80.5t-83.5 32.5q-52 0 -82.5 -30.5t-30.5 -79.5v-112h215v-99h-215v-117q0 -57 -33 -75v-4h386v-99z" />
    <glyph glyph-name="currency" unicode="&#xa4;" horiz-adv-x="579" 
d="M176 59l-70 -73l-69 67l71 74q-33 53 -33 116q0 64 35 119l-73 75l69 68l73 -76q53 33 113 33q59 0 110 -30l70 73l69 -68l-68 -71q38 -59 38 -123q0 -68 -37 -120l67 -70l-68 -67l-68 70q-50 -31 -113 -31q-61 0 -116 34zM205 153q35 -35 87 -35q51 0 86 35q35 37 35 90
q0 54 -35 89t-86 35q-52 0 -87 -35t-35 -89q0 -53 35 -90z" />
    <glyph glyph-name="yen" unicode="&#xa5;" horiz-adv-x="670" 
d="M515 700h134v-10l-188 -300h110v-94h-168l-6 -9v-71h174v-94h-174v-122h-118v122h-180v94h180v70l-6 10h-174v94h114l-192 300v10h140l176 -298h4z" />
    <glyph glyph-name="brokenbar" unicode="&#xa6;" horiz-adv-x="274" 
d="M187 402h-100v358h100v-358zM187 -138h-100v358h100v-358z" />
    <glyph glyph-name="section" unicode="&#xa7;" 
d="M89 -60h100q2 -43 27 -67.5t69 -24.5q43 0 66.5 20.5t23.5 55.5q0 44 -45 78l-189 145q-44 34 -63 68.5t-19 81.5q0 88 88 137q-41 47 -41 109q0 73 52 119q53 47 140 47t140.5 -51t55.5 -134h-100q-2 43 -27.5 67.5t-68.5 24.5q-42 0 -66 -21t-24 -55q0 -44 45 -78
l177 -135q49 -37 71.5 -74.5t22.5 -85.5q0 -85 -88 -137q41 -47 41 -109q0 -73 -52.5 -119.5t-139.5 -46.5t-140.5 51t-55.5 134zM199 224l172 -134q52 22 52 72q0 49 -45 83l-166 129q-52 -24 -52 -75q0 -47 39 -75z" />
    <glyph glyph-name="dieresis" unicode="&#xa8;" horiz-adv-x="413" 
d="M171 610h-114v114h114v-114zM356 610h-114v114h114v-114z" />
    <glyph glyph-name="copyright" unicode="&#xa9;" horiz-adv-x="820" 
d="M760 350q-2 -156 -99 -258q-98 -101 -251 -101q-154 0 -252 101q-96 101 -98 258q2 158 98 257q98 102 252 102t251 -102q97 -100 99 -257zM680 350q-2 129 -73 205q-72 77 -197 77t-197 -77q-71 -76 -73 -205q2 -130 73 -206q72 -76 197 -76t197 76q71 76 73 206z
M412 216q80 0 89 74h76q-6 -65 -48.5 -104t-115.5 -39q-86 0 -132.5 53t-46.5 147t47 147.5t131 53.5q74 0 117 -40.5t46 -104.5h-76q-3 36 -26.5 55.5t-60.5 19.5q-101 0 -101 -131t101 -131z" />
    <glyph glyph-name="ordfeminine" unicode="&#xaa;" horiz-adv-x="374" 
d="M160 296q-54 0 -87.5 30t-33.5 78t36.5 77t104.5 29q43 0 77 -10v27q0 56 -65 56q-30 0 -46.5 -13.5t-16.5 -35.5h-74q0 51 38 83t100 32q65 0 103.5 -34t38.5 -87v-226h-69l-6 38h-3q-32 -44 -97 -44zM176 360q36 0 58.5 20t22.5 51v10q-37 12 -72 12q-67 0 -67 -47
q0 -46 58 -46z" />
    <glyph glyph-name="guillemotleft" unicode="&#xab;" horiz-adv-x="593" 
d="M303 66h-106l-166 212v10l166 212h106v-10l-140 -207l140 -207v-10zM546 66h-106l-166 212v10l166 212h106v-10l-140 -207l140 -207v-10z" />
    <glyph glyph-name="uni00AD" unicode="&#xad;" horiz-adv-x="466" 
d="M386 241h-306v104h306v-104z" />
    <glyph glyph-name="registered" unicode="&#xae;" horiz-adv-x="491" 
d="M402 347q-62 -62 -156 -62t-156 62q-61 62 -61 157t61 156q62 63 156 63t156 -63q61 -61 61 -156t-61 -157zM246 343q72 0 114 43t42 118t-42 118t-114 43t-114.5 -43t-42.5 -118t42.5 -118t114.5 -43zM217 397h-52v208h96q34 0 55 -19.5t21 -48.5q0 -47 -37 -65l46 -69
v-6h-54l-42 67h-33v-67zM217 560v-50h39q27 0 27 25t-27 25h-39z" />
    <glyph glyph-name="overscore" unicode="&#xaf;" horiz-adv-x="347" 
d="M314 613h-281v94h281v-94z" />
    <glyph glyph-name="degree" unicode="&#xb0;" horiz-adv-x="443" 
d="M221 367q-76 0 -125 49q-50 50 -50 124q0 73 50 123t125 50q76 0 126 -50t50 -123q0 -74 -50 -124q-49 -49 -126 -49zM221 446q41 0 65.5 26.5t24.5 67.5q0 42 -24.5 68t-65.5 26q-40 0 -64.5 -26.5t-24.5 -67.5t24.5 -67.5t64.5 -26.5z" />
    <glyph glyph-name="plusminus" unicode="&#xb1;" horiz-adv-x="485" 
d="M297 201h-106v155h-186v97h186v154h106v-154h183v-97h-183v-155zM480 41h-475v98h475v-98z" />
    <glyph glyph-name="uni00B2" unicode="&#xb2;" horiz-adv-x="406" 
d="M363 251h-318v73l155 145q39 36 52.5 58t13.5 48q0 25 -17.5 41.5t-47.5 16.5q-32 0 -50.5 -18t-18.5 -48h-88q0 64 43 104q44 42 114 41q72 0 112 -40q42 -39 42 -94q0 -39 -18.5 -71.5t-63.5 -73.5l-108 -99v-3h198v-80z" />
    <glyph glyph-name="uni00B3" unicode="&#xb3;" horiz-adv-x="424" 
d="M213 242q-77 0 -123 40t-46 107h85q1 -30 23 -49t61 -19q38 0 57.5 17t19.5 47q0 28 -21.5 44.5t-60.5 16.5h-47v78h45q71 0 71 57q0 24 -18 38.5t-50 14.5q-71 0 -72 -67h-87q2 67 45 106t116 39q68 2 112 -35q44 -35 44 -92q0 -67 -56 -94v-3q31 -12 50 -39.5t19 -63.5
q0 -65 -44.5 -104t-122.5 -39z" />
    <glyph glyph-name="acute" unicode="&#xb4;" horiz-adv-x="272" 
d="M123 583h-90v10l72 140h134v-10z" />
    <glyph glyph-name="paragraph" unicode="&#xb6;" horiz-adv-x="627" 
d="M316 -104h-97v457q-78 0 -133 55t-55 134q0 78 55 133t133 55h346v-86h-64v-748h-97v748h-88v-748z" />
    <glyph glyph-name="middot" unicode="&#xb7;" horiz-adv-x="241" 
d="M186 235h-132v130h132v-130z" />
    <glyph glyph-name="cedilla" unicode="&#xb8;" horiz-adv-x="317" 
d="M154 -222q-53 0 -87 25.5t-34 69.5h73q0 -14 13 -23t34 -9q47 0 47 32q0 31 -44 31h-32l-25 31l40 79h84l-36 -56q44 -2 70.5 -25.5t26.5 -60.5q0 -42 -34 -68t-96 -26z" />
    <glyph glyph-name="uni00B9" unicode="&#xb9;" horiz-adv-x="291" 
d="M247 248h-87v356h-4l-104 -79h-8v88l115 87h88v-452z" />
    <glyph glyph-name="ordmasculine" unicode="&#xba;" horiz-adv-x="404" 
d="M202 296q-77 0 -120 48t-43 128q0 79 43.5 128t119.5 49q77 0 120 -48.5t43 -128.5t-43 -128t-120 -48zM281 472q0 105 -79 105t-79 -105q0 -104 79 -104t79 104z" />
    <glyph glyph-name="guillemotright" unicode="&#xbb;" horiz-adv-x="593" 
d="M320 278l-166 -212h-106v10l140 207l-140 207v10h106l166 -212v-10zM562 278l-166 -212h-106v10l140 207l-140 207v10h106l166 -212v-10z" />
    <glyph glyph-name="onequarter" unicode="&#xbc;" horiz-adv-x="901" 
d="M247 248h-87v356h-4l-104 -79h-8v88l115 87h88v-452zM268 0h-96v10l434 690h94v-10zM800 0h-87v89h-207v87l179 276h115v-283h57v-80h-57v-89zM594 173v-4h119v183h-4z" />
    <glyph glyph-name="onehalf" unicode="&#xbd;" horiz-adv-x="936" 
d="M247 248h-87v356h-4l-104 -79h-8v88l115 87h88v-452zM268 0h-96v10l434 690h94v-10zM893 0h-319v73l156 146q39 36 52.5 57.5t13.5 47.5q0 25 -18 41.5t-48 16.5q-31 0 -49.5 -18.5t-18.5 -47.5h-89q0 63 44 104t113 41q70 0 112.5 -38t42.5 -96q0 -38 -18 -70.5
t-64 -74.5l-108 -99v-3h198v-80z" />
    <glyph glyph-name="threequarters" unicode="&#xbe;" horiz-adv-x="991" 
d="M213 242q-77 0 -123 40t-46 107h85q1 -30 23 -49t61 -19q38 0 57.5 17t19.5 47q0 28 -21.5 44.5t-60.5 16.5h-47v78h45q71 0 71 57q0 24 -18 38.5t-50 14.5q-71 0 -72 -67h-87q2 67 45 106t116 39q68 2 112 -35q44 -35 44 -92q0 -67 -56 -94v-3q31 -12 50 -39.5t19 -63.5
q0 -65 -44.5 -104t-122.5 -39zM358 0h-96v10l434 690h94v-10zM890 0h-87v89h-207v87l179 276h115v-283h57v-80h-57v-89zM684 173v-4h119v183h-4z" />
    <glyph glyph-name="questiondown" unicode="&#xbf;" horiz-adv-x="543" 
d="M350 386h-132v130h132v-130zM269 -193q-100 0 -161 52t-61 134q0 95 76 153l42 33q39 31 51.5 49.5t12.5 50.5v16h110v-16q0 -59 -21 -93q-20 -34 -69 -71l-32 -25q-52 -40 -52 -92q0 -40 27.5 -65.5t76.5 -25.5q54 0 82.5 29t28.5 81h116q0 -91 -59 -150
q-59 -60 -168 -60z" />
    <glyph glyph-name="Agrave" unicode="&#xc0;" horiz-adv-x="691" 
d="M413 777v-10h-90l-116 140v10h134zM271 700h147l251 -690v-10h-128l-55 162h-286l-55 -162h-124v10zM341 577l-106 -312h216l-106 312h-4z" />
    <glyph glyph-name="Aacute" unicode="&#xc1;" horiz-adv-x="691" 
d="M491 917v-10l-116 -140h-90v10l72 140h134zM271 700h147l251 -690v-10h-128l-55 162h-286l-55 -162h-124v10zM341 577l-106 -312h216l-106 312h-4z" />
    <glyph glyph-name="Acircumflex" unicode="&#xc2;" horiz-adv-x="691" 
d="M349 838h-4l-65 -69h-98v10l98 136h134l98 -136v-10h-98zM271 700h147l251 -690v-10h-128l-55 162h-286l-55 -162h-124v10zM341 577l-106 -312h216l-106 312h-4z" />
    <glyph glyph-name="Atilde" unicode="&#xc3;" horiz-adv-x="691" 
d="M274 819q-14 0 -23.5 -11t-9.5 -30h-73v15q0 52 27.5 81.5t74.5 29.5q33 0 68 -20l15 -9q23 -13 38 -13q32 0 32 40h72v-15q0 -54 -26.5 -82.5t-74.5 -28.5q-32 0 -67 20l-14 9q-23 14 -39 14zM271 700h147l251 -690v-10h-128l-55 162h-286l-55 -162h-124v10zM341 577
l-106 -312h216l-106 312h-4z" />
    <glyph glyph-name="Adieresis" unicode="&#xc4;" horiz-adv-x="691" 
d="M198 908h114v-114h-114v114zM383 908h114v-114h-114v114zM271 700h147l251 -690v-10h-128l-55 162h-286l-55 -162h-124v10zM341 577l-106 -312h216l-106 312h-4z" />
    <glyph glyph-name="Aring" unicode="&#xc5;" horiz-adv-x="691" 
d="M343 754q-49 0 -81 31t-32 80t32 80.5t81 31.5q51 0 83 -31t32 -81q0 -49 -32 -80t-83 -31zM342 911q-28 2 -39.5 -22t0 -48t39.5 -21q30 -3 42 21t-0.5 48t-41.5 22zM271 700h147l251 -690v-10h-128l-55 162h-286l-55 -162h-124v10zM341 577l-106 -312h216l-106 312h-4z
" />
    <glyph glyph-name="AE" unicode="&#xc6;" horiz-adv-x="913" 
d="M145 0h-124v10l250 690h590v-106h-404l66 -180h307v-106h-269l74 -203h226v-105h-320l-55 162h-286zM341 577l-107 -312h218l-107 312h-4z" />
    <glyph glyph-name="Ccedilla" unicode="&#xc7;" horiz-adv-x="709" 
d="M369 98q148 0 174 142h119q-12 -105 -81 -172q-68 -67 -181 -76l-22 -34q44 -2 70.5 -25.5t26.5 -60.5q0 -42 -34 -68t-96 -26q-53 0 -87 25.5t-34 69.5h73q0 -14 13 -23t34 -9q47 0 47 32q0 31 -44 31h-32l-25 31l30 59q-133 17 -203 112t-70 243q0 162 84 261t238 99
q126 0 205 -71q77 -70 88 -185h-120q-7 68 -52 108t-121 40q-103 0 -152 -70q-50 -70 -50 -182q0 -117 51.5 -184t150.5 -67z" />
    <glyph glyph-name="Egrave" unicode="&#xc8;" horiz-adv-x="610" 
d="M401 767h-90l-116 140v10h134l72 -140v-10zM559 0h-472v700h472v-106h-355v-180h324v-106h-324v-203h355v-105z" />
    <glyph glyph-name="Eacute" unicode="&#xc9;" horiz-adv-x="610" 
d="M363 767h-90v10l72 140h134v-10zM559 0h-472v700h472v-106h-355v-180h324v-106h-324v-203h355v-105z" />
    <glyph glyph-name="Ecircumflex" unicode="&#xca;" horiz-adv-x="610" 
d="M268 769h-98v10l98 136h134l98 -136v-10h-98l-65 69h-4zM559 0h-472v700h472v-106h-355v-180h324v-106h-324v-203h355v-105z" />
    <glyph glyph-name="Edieresis" unicode="&#xcb;" horiz-adv-x="610" 
d="M300 794h-114v114h114v-114zM485 794h-114v114h114v-114zM559 0h-472v700h472v-106h-355v-180h324v-106h-324v-203h355v-105z" />
    <glyph glyph-name="Igrave" unicode="&#xcc;" horiz-adv-x="292" 
d="M216 767h-90l-116 140v10h134l72 -140v-10zM205 0h-118v700h118v-700z" />
    <glyph glyph-name="Iacute" unicode="&#xcd;" horiz-adv-x="292" 
d="M178 767h-90v10l72 140h134v-10zM205 0h-118v700h118v-700z" />
    <glyph glyph-name="Icircumflex" unicode="&#xce;" horiz-adv-x="292" 
d="M83 769h-98v10l98 136h134l98 -136v-10h-98l-65 69h-4zM205 0h-118v700h118v-700z" />
    <glyph glyph-name="Idieresis" unicode="&#xcf;" horiz-adv-x="292" 
d="M115 794h-114v114h114v-114zM300 794h-114v114h114v-114zM205 0h-118v700h118v-700z" />
    <glyph glyph-name="Eth" unicode="&#xd0;" horiz-adv-x="751" 
d="M134 700h236q152 0 243 -96q91 -95 91 -254q0 -151 -89 -251q-89 -99 -245 -99h-236v311h-71v102h71v287zM247 105h114q107 0 165 65t58 180q0 114 -58 179t-165 65h-114v-181h173v-102h-173v-206z" />
    <glyph glyph-name="Ntilde" unicode="&#xd1;" horiz-adv-x="743" 
d="M440 776q-32 0 -67 20l-14 9q-23 14 -39 14q-14 0 -23.5 -11t-9.5 -30h-73v15q0 52 27.5 81.5t74.5 29.5q33 0 68 -20l15 -9q23 -13 38 -13q32 0 32 40h72v-15q0 -54 -26.5 -82.5t-74.5 -28.5zM202 0h-115v700h134l315 -514h4v514h116v-700h-135l-315 511h-4v-511z" />
    <glyph glyph-name="Ograve" unicode="&#xd2;" horiz-adv-x="740" 
d="M442 767h-90l-116 140v10h134l72 -140v-10zM370 -9q-159 0 -241 100t-82 259t82 259t241 100q158 0 240 -100q83 -101 83 -259t-83 -259q-82 -100 -240 -100zM370 601q-104 0 -154 -69q-49 -68 -49 -182q0 -117 51.5 -184t151.5 -67t151.5 67t51.5 184t-51.5 184
t-151.5 67z" />
    <glyph glyph-name="Oacute" unicode="&#xd3;" horiz-adv-x="740" 
d="M404 767h-90v10l72 140h134v-10zM370 -9q-159 0 -241 100t-82 259t82 259t241 100q158 0 240 -100q83 -101 83 -259t-83 -259q-82 -100 -240 -100zM370 601q-104 0 -154 -69q-49 -68 -49 -182q0 -117 51.5 -184t151.5 -67t151.5 67t51.5 184t-51.5 184t-151.5 67z" />
    <glyph glyph-name="Ocircumflex" unicode="&#xd4;" horiz-adv-x="740" 
d="M309 769h-98v10l98 136h134l98 -136v-10h-98l-65 69h-4zM370 -9q-159 0 -241 100t-82 259t82 259t241 100q158 0 240 -100q83 -101 83 -259t-83 -259q-82 -100 -240 -100zM370 601q-104 0 -154 -69q-49 -68 -49 -182q0 -117 51.5 -184t151.5 -67t151.5 67t51.5 184
t-51.5 184t-151.5 67z" />
    <glyph glyph-name="Otilde" unicode="&#xd5;" horiz-adv-x="740" 
d="M423 776q-32 0 -67 20l-14 9q-23 14 -39 14q-14 0 -23.5 -11t-9.5 -30h-73v15q0 52 27.5 81.5t74.5 29.5q33 0 68 -20l15 -9q23 -13 38 -13q32 0 32 40h72v-15q0 -54 -26.5 -82.5t-74.5 -28.5zM370 -9q-159 0 -241 100t-82 259t82 259t241 100q158 0 240 -100
q83 -101 83 -259t-83 -259q-82 -100 -240 -100zM370 601q-104 0 -154 -69q-49 -68 -49 -182q0 -117 51.5 -184t151.5 -67t151.5 67t51.5 184t-51.5 184t-151.5 67z" />
    <glyph glyph-name="Odieresis" unicode="&#xd6;" horiz-adv-x="740" 
d="M341 794h-114v114h114v-114zM526 794h-114v114h114v-114zM370 -9q-159 0 -241 100t-82 259t82 259t241 100q158 0 240 -100q83 -101 83 -259t-83 -259q-82 -100 -240 -100zM370 601q-104 0 -154 -69q-49 -68 -49 -182q0 -117 51.5 -184t151.5 -67t151.5 67t51.5 184
t-51.5 184t-151.5 67z" />
    <glyph glyph-name="multiply" unicode="&#xd7;" horiz-adv-x="435" 
d="M221 247l-144 -142l-70 71l143 141l-143 141l70 71l144 -142l144 142l71 -71l-143 -141l143 -141l-71 -71z" />
    <glyph glyph-name="Oslash" unicode="&#xd8;" horiz-adv-x="740" 
d="M597 738h107v-10l-90 -123q79 -97 79 -255t-83 -259q-82 -100 -240 -100q-100 0 -173 43l-56 -76h-105v10l92 126q-81 96 -81 256q0 159 82 259t241 100q100 0 174 -44zM167 350q0 -96 33 -156l277 380q-43 27 -107 27q-104 0 -154 -69q-49 -68 -49 -182zM573 350
q0 91 -32 155l-277 -379q43 -27 106 -27q100 0 151.5 67t51.5 184z" />
    <glyph glyph-name="Ugrave" unicode="&#xd9;" horiz-adv-x="714" 
d="M423 767h-90l-116 140v10h134l72 -140v-10zM356 -9q-127 0 -203 70t-76 199v440h117v-438q0 -78 40.5 -121.5t121.5 -43.5q82 0 122.5 43.5t40.5 121.5v438h118v-440q0 -128 -77 -199q-76 -70 -204 -70z" />
    <glyph glyph-name="Uacute" unicode="&#xda;" horiz-adv-x="714" 
d="M385 767h-90v10l72 140h134v-10zM356 -9q-127 0 -203 70t-76 199v440h117v-438q0 -78 40.5 -121.5t121.5 -43.5q82 0 122.5 43.5t40.5 121.5v438h118v-440q0 -128 -77 -199q-76 -70 -204 -70z" />
    <glyph glyph-name="Ucircumflex" unicode="&#xdb;" horiz-adv-x="714" 
d="M290 769h-98v10l98 136h134l98 -136v-10h-98l-65 69h-4zM356 -9q-127 0 -203 70t-76 199v440h117v-438q0 -78 40.5 -121.5t121.5 -43.5q82 0 122.5 43.5t40.5 121.5v438h118v-440q0 -128 -77 -199q-76 -70 -204 -70z" />
    <glyph glyph-name="Udieresis" unicode="&#xdc;" horiz-adv-x="714" 
d="M322 794h-114v114h114v-114zM507 794h-114v114h114v-114zM356 -9q-127 0 -203 70t-76 199v440h117v-438q0 -78 40.5 -121.5t121.5 -43.5q82 0 122.5 43.5t40.5 121.5v438h118v-440q0 -128 -77 -199q-76 -70 -204 -70z" />
    <glyph glyph-name="Yacute" unicode="&#xdd;" horiz-adv-x="670" 
d="M372 767h-90v10l72 140h134v-10zM395 0h-118v286l-256 404v10h135l179 -298h4l176 298h134v-10l-254 -403v-287z" />
    <glyph glyph-name="Thorn" unicode="&#xde;" horiz-adv-x="621" 
d="M205 0h-118v700h118v-96h166q107 0 168 -63q63 -63 63 -162q0 -101 -63 -166q-63 -63 -168 -63h-166v-150zM205 500v-245h146q63 0 97 32t34 92q0 57 -35 89t-96 32h-146z" />
    <glyph glyph-name="germandbls" unicode="&#xdf;" horiz-adv-x="656" 
d="M429 -9q-92 0 -145.5 48.5t-55.5 133.5h110q0 -41 23 -63.5t68 -22.5q36 0 56.5 15.5t20.5 42.5q0 41 -68 64l-64 22q-68 22 -99 53.5t-31 83.5q0 45 26 77.5t63 45.5q89 32 89 80q0 36 -30.5 58t-83.5 22q-59 0 -90 -32t-31 -92v-527h-114v533q0 96 63 156q64 61 172 61
t166 -52q59 -51 59 -127q0 -85 -64 -121q-13 -7 -50.5 -22.5t-52.5 -27.5t-15 -30q3 -23 16.5 -32.5t51.5 -23.5l66 -21q69 -24 100.5 -59t31.5 -90q0 -69 -53 -111q-52 -42 -135 -42z" />
    <glyph glyph-name="agrave" unicode="&#xe0;" horiz-adv-x="546" 
d="M343 583h-90l-116 140v10h134l72 -140v-10zM219 -9q-83 0 -132 45q-48 46 -48 116q0 74 54 117t157 43h120v31q0 40 -26 64t-76 24q-44 0 -70 -21.5t-27 -55.5h-108q0 76 56 123.5t151 47.5q99 0 156 -51t57 -130v-344h-100l-8 61h-4q-48 -70 -152 -70zM245 82
q55 0 90 32.5t35 80.5v35h-115q-102 0 -102 -74q0 -34 24 -54t68 -20z" />
    <glyph glyph-name="aacute" unicode="&#xe1;" horiz-adv-x="546" 
d="M305 583h-90v10l72 140h134v-10zM219 -9q-83 0 -132 45q-48 46 -48 116q0 74 54 117t157 43h120v31q0 40 -26 64t-76 24q-44 0 -70 -21.5t-27 -55.5h-108q0 76 56 123.5t151 47.5q99 0 156 -51t57 -130v-344h-100l-8 61h-4q-48 -70 -152 -70zM245 82q55 0 90 32.5
t35 80.5v35h-115q-102 0 -102 -74q0 -34 24 -54t68 -20z" />
    <glyph glyph-name="acircumflex" unicode="&#xe2;" horiz-adv-x="546" 
d="M210 585h-98v10l98 136h134l98 -136v-10h-98l-65 69h-4zM219 -9q-83 0 -132 45q-48 46 -48 116q0 74 54 117t157 43h120v31q0 40 -26 64t-76 24q-44 0 -70 -21.5t-27 -55.5h-108q0 76 56 123.5t151 47.5q99 0 156 -51t57 -130v-344h-100l-8 61h-4q-48 -70 -152 -70z
M245 82q55 0 90 32.5t35 80.5v35h-115q-102 0 -102 -74q0 -34 24 -54t68 -20z" />
    <glyph glyph-name="atilde" unicode="&#xe3;" horiz-adv-x="546" 
d="M324 592q-32 0 -67 20l-14 9q-23 14 -39 14q-14 0 -23.5 -11t-9.5 -30h-73v15q0 52 27.5 81.5t74.5 29.5q33 0 68 -20l15 -9q23 -13 38 -13q32 0 32 40h72v-15q0 -54 -26.5 -82.5t-74.5 -28.5zM219 -9q-83 0 -132 45q-48 46 -48 116q0 74 54 117t157 43h120v31
q0 40 -26 64t-76 24q-44 0 -70 -21.5t-27 -55.5h-108q0 76 56 123.5t151 47.5q99 0 156 -51t57 -130v-344h-100l-8 61h-4q-48 -70 -152 -70zM245 82q55 0 90 32.5t35 80.5v35h-115q-102 0 -102 -74q0 -34 24 -54t68 -20z" />
    <glyph glyph-name="adieresis" unicode="&#xe4;" horiz-adv-x="546" 
d="M242 610h-114v114h114v-114zM427 610h-114v114h114v-114zM219 -9q-83 0 -132 45q-48 46 -48 116q0 74 54 117t157 43h120v31q0 40 -26 64t-76 24q-44 0 -70 -21.5t-27 -55.5h-108q0 76 56 123.5t151 47.5q99 0 156 -51t57 -130v-344h-100l-8 61h-4q-48 -70 -152 -70z
M245 82q55 0 90 32.5t35 80.5v35h-115q-102 0 -102 -74q0 -34 24 -54t68 -20z" />
    <glyph glyph-name="aring" unicode="&#xe5;" horiz-adv-x="546" 
d="M273 570q-49 0 -81 31t-32 80t32 80.5t81 31.5q51 0 83 -31t32 -81q0 -49 -32 -80t-83 -31zM272 636q30 -3 42 21t-0.5 48t-41.5 22q-28 2 -39.5 -22t0 -48t39.5 -21zM219 -9q-83 0 -132 45q-48 46 -48 116q0 74 54 117t157 43h120v31q0 40 -26 64t-76 24
q-44 0 -70 -21.5t-27 -55.5h-108q0 76 56 123.5t151 47.5q99 0 156 -51t57 -130v-344h-100l-8 61h-4q-48 -70 -152 -70zM245 82q55 0 90 32.5t35 80.5v35h-115q-102 0 -102 -74q0 -34 24 -54t68 -20z" />
    <glyph glyph-name="ae" unicode="&#xe6;" horiz-adv-x="879" 
d="M222 -9q-83 0 -133 45t-50 116q0 74 54 117t157 43h120v31q0 40 -26 64t-76 24q-44 0 -70 -21.5t-27 -55.5h-108q0 76 56 123.5t151 47.5q111 0 168 -69h4q58 69 165 69q109 0 171 -71t62 -180v-48h-357q0 -65 32.5 -102t93.5 -37q93 0 112 70h112q-10 -72 -73 -119
q-62 -47 -151 -47q-129 0 -189 97h-4q-57 -97 -194 -97zM484 307h239q-1 55 -31 88t-85 33q-58 0 -89.5 -32.5t-33.5 -88.5zM245 82q55 0 90 32.5t35 80.5v35h-114q-103 0 -103 -74q0 -34 24 -54t68 -20z" />
    <glyph glyph-name="ccedilla" unicode="&#xe7;" horiz-adv-x="546" 
d="M393 187h114q-6 -85 -56.5 -136.5t-138.5 -58.5l-22 -34q44 -2 70.5 -25.5t26.5 -60.5q0 -42 -34 -68t-96 -26q-53 0 -87 25.5t-34 69.5h73q0 -14 13 -23t34 -9q47 0 47 32q0 31 -44 31h-32l-25 31l31 60q-92 16 -143 85.5t-51 177.5q0 124 64 195.5t179 71.5
q102 0 160 -53.5t64 -143.5h-114q-4 44 -33 70t-77 26q-63 0 -95 -43.5t-32 -122.5q0 -80 32 -123.5t95 -43.5q48 0 77 25.5t34 70.5z" />
    <glyph glyph-name="egrave" unicode="&#xe8;" horiz-adv-x="554" 
d="M350 583h-90l-116 140v10h134l72 -140v-10zM283 -9q-115 0 -179 75q-65 76 -65 192t62 192q63 75 180 75q109 0 171 -71t62 -180v-48h-357q0 -65 33 -102t93 -37q94 0 113 70h111q-10 -72 -73 -119q-62 -47 -151 -47zM158 307h239q-1 55 -31 88t-85 33q-58 0 -89.5 -32.5
t-33.5 -88.5z" />
    <glyph glyph-name="eacute" unicode="&#xe9;" horiz-adv-x="554" 
d="M312 583h-90v10l72 140h134v-10zM283 -9q-115 0 -179 75q-65 76 -65 192t62 192q63 75 180 75q109 0 171 -71t62 -180v-48h-357q0 -65 33 -102t93 -37q94 0 113 70h111q-10 -72 -73 -119q-62 -47 -151 -47zM158 307h239q-1 55 -31 88t-85 33q-58 0 -89.5 -32.5
t-33.5 -88.5z" />
    <glyph glyph-name="ecircumflex" unicode="&#xea;" horiz-adv-x="554" 
d="M217 585h-98v10l98 136h134l98 -136v-10h-98l-65 69h-4zM283 -9q-115 0 -179 75q-65 76 -65 192t62 192q63 75 180 75q109 0 171 -71t62 -180v-48h-357q0 -65 33 -102t93 -37q94 0 113 70h111q-10 -72 -73 -119q-62 -47 -151 -47zM158 307h239q-1 55 -31 88t-85 33
q-58 0 -89.5 -32.5t-33.5 -88.5z" />
    <glyph glyph-name="edieresis" unicode="&#xeb;" horiz-adv-x="554" 
d="M249 610h-114v114h114v-114zM434 610h-114v114h114v-114zM283 -9q-115 0 -179 75q-65 76 -65 192t62 192q63 75 180 75q109 0 171 -71t62 -180v-48h-357q0 -65 33 -102t93 -37q94 0 113 70h111q-10 -72 -73 -119q-62 -47 -151 -47zM158 307h239q-1 55 -31 88t-85 33
q-58 0 -89.5 -32.5t-33.5 -88.5z" />
    <glyph glyph-name="igrave" unicode="&#xec;" horiz-adv-x="250" 
d="M199 583h-90l-116 140v10h134l72 -140v-10zM187 0h-114v516h114v-516z" />
    <glyph glyph-name="iacute" unicode="&#xed;" horiz-adv-x="250" 
d="M161 583h-90v10l72 140h134v-10zM187 0h-114v516h114v-516z" />
    <glyph glyph-name="icircumflex" unicode="&#xee;" horiz-adv-x="250" 
d="M66 585h-98v10l98 136h134l98 -136v-10h-98l-65 69h-4zM187 0h-114v516h114v-516z" />
    <glyph glyph-name="idieresis" unicode="&#xef;" horiz-adv-x="250" 
d="M98 610h-114v114h114v-114zM283 610h-114v114h114v-114zM187 0h-114v516h114v-516z" />
    <glyph glyph-name="eth" unicode="&#xf0;" horiz-adv-x="566" 
d="M527 260v-1v-1q0 -120 -63 -193q-63 -74 -181 -74q-119 0 -182 74q-62 74 -62 193q0 118 63 192q64 75 181 75q21 0 41 -3q-29 37 -68 73l-114 -56l-33 63l88 44q-57 45 -126 84v10h124q45 -27 82 -54l104 52l33 -65l-76 -37q173 -158 188 -348q1 -6 1 -28zM283 92
q128 0 128 166q0 78 -32 122t-96 44t-96 -44t-32 -122q0 -79 33 -122.5t95 -43.5z" />
    <glyph glyph-name="ntilde" unicode="&#xf1;" horiz-adv-x="587" 
d="M375 592q-32 0 -67 20l-14 9q-23 14 -39 14q-14 0 -23.5 -11t-9.5 -30h-73v15q0 52 27.5 81.5t74.5 29.5q33 0 68 -20l15 -9q23 -13 38 -13q32 0 32 40h72v-15q0 -54 -26.5 -82.5t-74.5 -28.5zM187 0h-114v516h101l9 -67h4q48 76 151 76q86 0 136 -50.5t50 -137.5v-337
h-114v309q0 113 -105 113q-54 0 -86 -37t-32 -100v-285z" />
    <glyph glyph-name="ograve" unicode="&#xf2;" horiz-adv-x="566" 
d="M352 583h-90l-116 140v10h134l72 -140v-10zM283 -9q-119 0 -182 74q-62 74 -62 193q0 118 63 192q64 75 181 75t180 -75q64 -73 64 -192q0 -120 -63 -193q-63 -74 -181 -74zM283 92q128 0 128 166q0 78 -32 122t-96 44t-96 -44t-32 -122q0 -79 33 -122.5t95 -43.5z" />
    <glyph glyph-name="oacute" unicode="&#xf3;" horiz-adv-x="566" 
d="M314 583h-90v10l72 140h134v-10zM283 -9q-119 0 -182 74q-62 74 -62 193q0 118 63 192q64 75 181 75t180 -75q64 -73 64 -192q0 -120 -63 -193q-63 -74 -181 -74zM283 92q128 0 128 166q0 78 -32 122t-96 44t-96 -44t-32 -122q0 -79 33 -122.5t95 -43.5z" />
    <glyph glyph-name="ocircumflex" unicode="&#xf4;" horiz-adv-x="566" 
d="M219 585h-98v10l98 136h134l98 -136v-10h-98l-65 69h-4zM283 -9q-119 0 -182 74q-62 74 -62 193q0 118 63 192q64 75 181 75t180 -75q64 -73 64 -192q0 -120 -63 -193q-63 -74 -181 -74zM283 92q128 0 128 166q0 78 -32 122t-96 44t-96 -44t-32 -122q0 -79 33 -122.5
t95 -43.5z" />
    <glyph glyph-name="otilde" unicode="&#xf5;" horiz-adv-x="566" 
d="M333 592q-32 0 -67 20l-14 9q-23 14 -39 14q-14 0 -23.5 -11t-9.5 -30h-73v15q0 52 27.5 81.5t74.5 29.5q33 0 68 -20l15 -9q23 -13 38 -13q32 0 32 40h72v-15q0 -54 -26.5 -82.5t-74.5 -28.5zM283 -9q-119 0 -182 74q-62 74 -62 193q0 118 63 192q64 75 181 75t180 -75
q64 -73 64 -192q0 -120 -63 -193q-63 -74 -181 -74zM283 92q128 0 128 166q0 78 -32 122t-96 44t-96 -44t-32 -122q0 -79 33 -122.5t95 -43.5z" />
    <glyph glyph-name="odieresis" unicode="&#xf6;" horiz-adv-x="566" 
d="M251 610h-114v114h114v-114zM436 610h-114v114h114v-114zM283 -9q-119 0 -182 74q-62 74 -62 193q0 118 63 192q64 75 181 75t180 -75q64 -73 64 -192q0 -120 -63 -193q-63 -74 -181 -74zM283 92q128 0 128 166q0 78 -32 122t-96 44t-96 -44t-32 -122q0 -79 33 -122.5
t95 -43.5z" />
    <glyph glyph-name="divide" unicode="&#xf7;" horiz-adv-x="485" 
d="M291 438q-17 -18 -49 -18t-50 18q-17 19 -17 50t17 49q18 18 50 18t49 -18q18 -18 18 -49t-18 -50zM480 265h-475v96h475v-96zM175 139q0 31 17.5 49t49.5 18t49.5 -18t17.5 -49t-17.5 -49.5t-49.5 -18.5t-49.5 18.5t-17.5 49.5z" />
    <glyph glyph-name="oslash" unicode="&#xf8;" horiz-adv-x="566" 
d="M525 548l-63 -96q65 -74 65 -194t-63 -193q-63 -74 -181 -74q-63 0 -109 21l-38 -59h-95v10l64 98q-66 72 -66 197q0 118 63 192q64 75 181 75q61 0 109 -22l36 55h97v-10zM155 258q0 -59 16 -95l164 252q-23 9 -52 9q-63 0 -95.5 -43t-32.5 -123zM283 92q128 0 128 166
q0 54 -15 92l-163 -249q21 -9 50 -9z" />
    <glyph glyph-name="ugrave" unicode="&#xf9;" horiz-adv-x="580" 
d="M361 583h-90l-116 140v10h134l72 -140v-10zM253 -8q-86 0 -136 50t-50 138v336h114v-308q0 -114 105 -114q54 0 86 37t32 100v285h114v-516h-101l-9 68h-4q-46 -76 -151 -76z" />
    <glyph glyph-name="uacute" unicode="&#xfa;" horiz-adv-x="580" 
d="M323 583h-90v10l72 140h134v-10zM253 -8q-86 0 -136 50t-50 138v336h114v-308q0 -114 105 -114q54 0 86 37t32 100v285h114v-516h-101l-9 68h-4q-46 -76 -151 -76z" />
    <glyph glyph-name="ucircumflex" unicode="&#xfb;" horiz-adv-x="580" 
d="M228 585h-98v10l98 136h134l98 -136v-10h-98l-65 69h-4zM253 -8q-86 0 -136 50t-50 138v336h114v-308q0 -114 105 -114q54 0 86 37t32 100v285h114v-516h-101l-9 68h-4q-46 -76 -151 -76z" />
    <glyph glyph-name="udieresis" unicode="&#xfc;" horiz-adv-x="580" 
d="M260 610h-114v114h114v-114zM445 610h-114v114h114v-114zM253 -8q-86 0 -136 50t-50 138v336h114v-308q0 -114 105 -114q54 0 86 37t32 100v285h114v-516h-101l-9 68h-4q-46 -76 -151 -76z" />
    <glyph glyph-name="yacute" unicode="&#xfd;" horiz-adv-x="544" 
d="M310 583h-90v10l72 140h134v-10zM16 506v10h119l134 -388h4l134 388h121v-10l-274 -735h-120v10l82 221l-12 2z" />
    <glyph glyph-name="thorn" unicode="&#xfe;" horiz-adv-x="600" 
d="M338 525q99 0 157 -73q58 -71 58 -194q0 -120 -57 -193q-56 -74 -158 -74q-100 0 -147 71h-4v-291h-114v969h114v-286h4q47 71 147 71zM310 92q64 0 96 44.5t32 121.5t-32 121.5t-96 44.5q-62 0 -94.5 -45.5t-32.5 -120.5t32.5 -120.5t94.5 -45.5z" />
    <glyph glyph-name="ydieresis" unicode="&#xff;" horiz-adv-x="544" 
d="M247 610h-114v114h114v-114zM432 610h-114v114h114v-114zM16 506v10h119l134 -388h4l134 388h121v-10l-274 -735h-120v10l82 221l-12 2z" />
    <glyph glyph-name="Amacron" unicode="&#x100;" horiz-adv-x="691" 
d="M205 891h281v-94h-281v94zM271 700h147l251 -690v-10h-128l-55 162h-286l-55 -162h-124v10zM341 577l-106 -312h216l-106 312h-4z" />
    <glyph glyph-name="amacron" unicode="&#x101;" horiz-adv-x="546" 
d="M416 613h-281v94h281v-94zM219 -9q-83 0 -132 45q-48 46 -48 116q0 74 54 117t157 43h120v31q0 40 -26 64t-76 24q-44 0 -70 -21.5t-27 -55.5h-108q0 76 56 123.5t151 47.5q99 0 156 -51t57 -130v-344h-100l-8 61h-4q-48 -70 -152 -70zM245 82q55 0 90 32.5t35 80.5v35
h-115q-102 0 -102 -74q0 -34 24 -54t68 -20z" />
    <glyph glyph-name="Abreve" unicode="&#x102;" horiz-adv-x="691" 
d="M344 769q-72 0 -112 39t-40 106h88q3 -59 64 -59q62 0 65 59h88q0 -68 -40 -106.5t-113 -38.5zM271 700h147l251 -690v-10h-128l-55 162h-286l-55 -162h-124v10zM341 577l-106 -312h216l-106 312h-4z" />
    <glyph glyph-name="abreve" unicode="&#x103;" horiz-adv-x="546" 
d="M274 585q-72 0 -112 39t-40 106h88q3 -59 64 -59q62 0 65 59h88q0 -68 -40 -106.5t-113 -38.5zM219 -9q-83 0 -132 45q-48 46 -48 116q0 74 54 117t157 43h120v31q0 40 -26 64t-76 24q-44 0 -70 -21.5t-27 -55.5h-108q0 76 56 123.5t151 47.5q99 0 156 -51t57 -130v-344
h-100l-8 61h-4q-48 -70 -152 -70zM245 82q55 0 90 32.5t35 80.5v35h-115q-102 0 -102 -74q0 -34 24 -54t68 -20z" />
    <glyph glyph-name="Aogonek" unicode="&#x104;" horiz-adv-x="691" 
d="M669 10v-10q-85 -37 -85 -96q0 -21 14.5 -33t36.5 -12h34v-80h-59q-52 0 -87.5 28t-35.5 75q0 73 72 118h-18l-55 162h-286l-55 -162h-124v10l250 690h147zM341 577l-106 -312h216l-106 312h-4z" />
    <glyph glyph-name="aogonek" unicode="&#x105;" horiz-adv-x="546" 
d="M270 525q99 0 156 -51t57 -130v-344h-1q-85 -37 -85 -96q0 -21 14.5 -33t36.5 -12h34v-80h-59q-52 0 -87.5 28t-35.5 75q0 79 82 124l-7 55h-4q-48 -70 -152 -70q-83 0 -132 45q-48 46 -48 116q0 74 54 117t157 43h120v31q0 40 -26 64t-76 24q-44 0 -70 -21.5t-27 -55.5
h-108q0 76 56 123.5t151 47.5zM370 195v35h-115q-102 0 -102 -74q0 -34 24 -54t68 -20q55 0 90 32.5t35 80.5z" />
    <glyph glyph-name="Cacute" unicode="&#x106;" horiz-adv-x="709" 
d="M400 767h-90v10l72 140h134v-10zM369 -9q-154 0 -238 98q-84 99 -84 260q0 162 84 261t238 99q126 0 205 -71q77 -70 88 -185h-120q-7 68 -52 108t-121 40q-103 0 -152 -70q-50 -70 -50 -182q0 -117 51.5 -184t150.5 -67q148 0 174 142h119q-14 -111 -90 -180
q-77 -69 -203 -69z" />
    <glyph glyph-name="cacute" unicode="&#x107;" horiz-adv-x="546" 
d="M317 583h-90v10l72 140h134v-10zM285 -9q-117 0 -182 72q-64 73 -64 195q0 124 64 195.5t179 71.5q102 0 160 -53.5t64 -143.5h-114q-4 44 -33 70t-77 26q-63 0 -95 -43.5t-32 -122.5q0 -80 32 -123.5t95 -43.5q48 0 77 25.5t34 70.5h114q-7 -91 -64.5 -143.5
t-157.5 -52.5z" />
    <glyph glyph-name="Ccircumflex" unicode="&#x108;" horiz-adv-x="709" 
d="M305 769h-98v10l98 136h134l98 -136v-10h-98l-65 69h-4zM369 -9q-154 0 -238 98q-84 99 -84 260q0 162 84 261t238 99q126 0 205 -71q77 -70 88 -185h-120q-7 68 -52 108t-121 40q-103 0 -152 -70q-50 -70 -50 -182q0 -117 51.5 -184t150.5 -67q148 0 174 142h119
q-14 -111 -90 -180q-77 -69 -203 -69z" />
    <glyph glyph-name="ccircumflex" unicode="&#x109;" horiz-adv-x="546" 
d="M222 585h-98v10l98 136h134l98 -136v-10h-98l-65 69h-4zM285 -9q-117 0 -182 72q-64 73 -64 195q0 124 64 195.5t179 71.5q102 0 160 -53.5t64 -143.5h-114q-4 44 -33 70t-77 26q-63 0 -95 -43.5t-32 -122.5q0 -80 32 -123.5t95 -43.5q48 0 77 25.5t34 70.5h114
q-7 -91 -64.5 -143.5t-157.5 -52.5z" />
    <glyph glyph-name="Cdotaccent" unicode="&#x10a;" horiz-adv-x="709" 
d="M431 787h-124v123h124v-123zM369 -9q-154 0 -238 98q-84 99 -84 260q0 162 84 261t238 99q126 0 205 -71q77 -70 88 -185h-120q-7 68 -52 108t-121 40q-103 0 -152 -70q-50 -70 -50 -182q0 -117 51.5 -184t150.5 -67q148 0 174 142h119q-14 -111 -90 -180
q-77 -69 -203 -69z" />
    <glyph glyph-name="cdotaccent" unicode="&#x10b;" horiz-adv-x="546" 
d="M348 603h-124v123h124v-123zM285 -9q-117 0 -182 72q-64 73 -64 195q0 124 64 195.5t179 71.5q102 0 160 -53.5t64 -143.5h-114q-4 44 -33 70t-77 26q-63 0 -95 -43.5t-32 -122.5q0 -80 32 -123.5t95 -43.5q48 0 77 25.5t34 70.5h114q-7 -91 -64.5 -143.5t-157.5 -52.5z
" />
    <glyph glyph-name="Ccaron" unicode="&#x10c;" horiz-adv-x="709" 
d="M437 769h-134l-98 136v10h98l64 -69h4l66 69h98v-10zM369 -9q-154 0 -238 98q-84 99 -84 260q0 162 84 261t238 99q126 0 205 -71q77 -70 88 -185h-120q-7 68 -52 108t-121 40q-103 0 -152 -70q-50 -70 -50 -182q0 -117 51.5 -184t150.5 -67q148 0 174 142h119
q-14 -111 -90 -180q-77 -69 -203 -69z" />
    <glyph glyph-name="ccaron" unicode="&#x10d;" horiz-adv-x="546" 
d="M354 585h-134l-98 136v10h98l64 -69h4l66 69h98v-10zM285 -9q-117 0 -182 72q-64 73 -64 195q0 124 64 195.5t179 71.5q102 0 160 -53.5t64 -143.5h-114q-4 44 -33 70t-77 26q-63 0 -95 -43.5t-32 -122.5q0 -80 32 -123.5t95 -43.5q48 0 77 25.5t34 70.5h114
q-7 -91 -64.5 -143.5t-157.5 -52.5z" />
    <glyph glyph-name="Dcaron" unicode="&#x10e;" horiz-adv-x="704" 
d="M384 769h-134l-98 136v10h98l64 -69h4l66 69h98v-10zM323 0h-236v700h236q151 0 243 -96q91 -95 91 -254q0 -151 -89 -251q-88 -99 -245 -99zM200 594v-489h114q107 0 165 65t58 180q0 114 -58 179t-165 65h-114z" />
    <glyph glyph-name="dcaron" unicode="&#x10f;" 
d="M254 -9q-99 0 -157 73q-56 73 -58 195q1 119 57 192q57 74 158 74t148 -71h4v286h114v-740h-101l-13 62h-4q-47 -71 -148 -71zM645 570h-76v170h118v-10zM282 92q62 0 95 46t33 121q0 76 -32.5 120.5t-95.5 44.5q-64 0 -95.5 -44.5t-31.5 -120.5q0 -77 31.5 -122
t95.5 -45z" />
    <glyph glyph-name="Dcroat" unicode="&#x110;" horiz-adv-x="751" 
d="M134 700h236q152 0 243 -96q91 -95 91 -254q0 -151 -89 -251q-89 -99 -245 -99h-236v311h-71v102h71v287zM247 105h114q107 0 165 65t58 180q0 114 -58 179t-165 65h-114v-181h173v-102h-173v-206z" />
    <glyph glyph-name="dslash" unicode="&#x111;" 
d="M520 671h62v-80h-62v-591h-101l-13 62h-4q-47 -71 -148 -71q-99 0 -157 73q-56 73 -58 195q1 119 57 192q57 74 158 74t148 -71h4v137h-114v80h114v69h114v-69zM282 92q62 0 95 46t33 121q0 76 -32.5 120.5t-95.5 44.5q-64 0 -95.5 -44.5t-31.5 -120.5q0 -77 31.5 -122
t95.5 -45z" />
    <glyph glyph-name="Emacron" unicode="&#x112;" horiz-adv-x="610" 
d="M474 797h-281v94h281v-94zM559 0h-472v700h472v-106h-355v-180h324v-106h-324v-203h355v-105z" />
    <glyph glyph-name="emacron" unicode="&#x113;" horiz-adv-x="554" 
d="M423 613h-281v94h281v-94zM283 -9q-115 0 -179 75q-65 76 -65 192t62 192q63 75 180 75q109 0 171 -71t62 -180v-48h-357q0 -65 33 -102t93 -37q94 0 113 70h111q-10 -72 -73 -119q-62 -47 -151 -47zM158 307h239q-1 55 -31 88t-85 33q-58 0 -89.5 -32.5t-33.5 -88.5z
" />
    <glyph glyph-name="Ebreve" unicode="&#x114;" horiz-adv-x="610" 
d="M332 769q-72 0 -112 39t-40 106h88q3 -59 64 -59q62 0 65 59h88q0 -68 -40 -106.5t-113 -38.5zM559 0h-472v700h472v-106h-355v-180h324v-106h-324v-203h355v-105z" />
    <glyph glyph-name="ebreve" unicode="&#x115;" horiz-adv-x="554" 
d="M281 585q-72 0 -112 39t-40 106h88q3 -59 64 -59q62 0 65 59h88q0 -68 -40 -106.5t-113 -38.5zM283 -9q-115 0 -179 75q-65 76 -65 192t62 192q63 75 180 75q109 0 171 -71t62 -180v-48h-357q0 -65 33 -102t93 -37q94 0 113 70h111q-10 -72 -73 -119q-62 -47 -151 -47z
M158 307h239q-1 55 -31 88t-85 33q-58 0 -89.5 -32.5t-33.5 -88.5z" />
    <glyph glyph-name="Edotaccent" unicode="&#x116;" horiz-adv-x="610" 
d="M394 787h-124v123h124v-123zM559 0h-472v700h472v-106h-355v-180h324v-106h-324v-203h355v-105z" />
    <glyph glyph-name="edotaccent" unicode="&#x117;" horiz-adv-x="554" 
d="M343 603h-124v123h124v-123zM283 -9q-115 0 -179 75q-65 76 -65 192t62 192q63 75 180 75q109 0 171 -71t62 -180v-48h-357q0 -65 33 -102t93 -37q94 0 113 70h111q-10 -72 -73 -119q-62 -47 -151 -47zM158 307h239q-1 55 -31 88t-85 33q-58 0 -89.5 -32.5t-33.5 -88.5z
" />
    <glyph glyph-name="Eogonek" unicode="&#x118;" horiz-adv-x="610" 
d="M559 700v-106h-355v-180h324v-106h-324v-203h355v-105h-3q-85 -37 -85 -96q0 -21 14.5 -33t36.5 -12h34v-80h-59q-52 0 -87.5 28t-35.5 75q0 73 72 118h-359v700h472z" />
    <glyph glyph-name="eogonek" unicode="&#x119;" horiz-adv-x="554" 
d="M514 274v-48h-357q0 -65 33 -102t93 -37q94 0 113 70h111q-8 -56 -48 -98t-103 -59h2q-85 -37 -85 -96q0 -21 14.5 -33t36.5 -12h34v-80h-59q-52 0 -87.5 28t-35.5 75q0 68 63 112q-95 15 -147 87q-53 74 -53 177q0 116 62 192q63 75 180 75q109 0 171 -71t62 -180z
M158 307h239q-1 55 -31 88t-85 33q-58 0 -89.5 -32.5t-33.5 -88.5z" />
    <glyph glyph-name="Ecaron" unicode="&#x11a;" horiz-adv-x="610" 
d="M400 769h-134l-98 136v10h98l64 -69h4l66 69h98v-10zM559 0h-472v700h472v-106h-355v-180h324v-106h-324v-203h355v-105z" />
    <glyph glyph-name="ecaron" unicode="&#x11b;" horiz-adv-x="554" 
d="M349 585h-134l-98 136v10h98l64 -69h4l66 69h98v-10zM283 -9q-115 0 -179 75q-65 76 -65 192t62 192q63 75 180 75q109 0 171 -71t62 -180v-48h-357q0 -65 33 -102t93 -37q94 0 113 70h111q-10 -72 -73 -119q-62 -47 -151 -47zM158 307h239q-1 55 -31 88t-85 33
q-58 0 -89.5 -32.5t-33.5 -88.5z" />
    <glyph glyph-name="Gcircumflex" unicode="&#x11c;" horiz-adv-x="718" 
d="M304 769h-98v10l98 136h134l98 -136v-10h-98l-65 69h-4zM367 -9q-154 0 -237 98t-83 259q0 162 83 262q84 99 237 99q126 0 205 -68q80 -67 90 -174h-120q-9 62 -53.5 98t-121.5 36q-99 0 -149.5 -67.5t-50.5 -185.5q0 -117 50.5 -183.5t149.5 -66.5q84 0 132.5 46.5
t53.5 123.5h-166v104h284v-67q0 -143 -83 -229q-82 -85 -221 -85z" />
    <glyph glyph-name="gcircumflex" unicode="&#x11d;" 
d="M214 585h-98v10l98 136h134l98 -136v-10h-98l-65 69h-4zM281 -238q-100 0 -163 51q-63 50 -64 131h111q3 -36 34.5 -60t81.5 -24q60 0 92.5 31t32.5 83v88h-4q-47 -71 -148 -71t-158 74q-55 73 -57 193q2 123 58 194q58 73 157 73q101 0 148 -71h4l13 62h101v-544
q0 -93 -66 -151q-65 -59 -173 -59zM282 92q63 0 95.5 45t32.5 121q0 75 -33 120.5t-95 45.5q-64 0 -95.5 -44.5t-31.5 -121.5t31.5 -121.5t95.5 -44.5z" />
    <glyph glyph-name="Gbreve" unicode="&#x11e;" horiz-adv-x="718" 
d="M368 769q-72 0 -112 39t-40 106h88q3 -59 64 -59q62 0 65 59h88q0 -68 -40 -106.5t-113 -38.5zM367 -9q-154 0 -237 98t-83 259q0 162 83 262q84 99 237 99q126 0 205 -68q80 -67 90 -174h-120q-9 62 -53.5 98t-121.5 36q-99 0 -149.5 -67.5t-50.5 -185.5
q0 -117 50.5 -183.5t149.5 -66.5q84 0 132.5 46.5t53.5 123.5h-166v104h284v-67q0 -143 -83 -229q-82 -85 -221 -85z" />
    <glyph glyph-name="gbreve" unicode="&#x11f;" 
d="M278 585q-72 0 -112 39t-40 106h88q3 -59 64 -59q62 0 65 59h88q0 -68 -40 -106.5t-113 -38.5zM281 -238q-100 0 -163 51q-63 50 -64 131h111q3 -36 34.5 -60t81.5 -24q60 0 92.5 31t32.5 83v88h-4q-47 -71 -148 -71t-158 74q-55 73 -57 193q2 123 58 194q58 73 157 73
q101 0 148 -71h4l13 62h101v-544q0 -93 -66 -151q-65 -59 -173 -59zM282 92q63 0 95.5 45t32.5 121q0 75 -33 120.5t-95 45.5q-64 0 -95.5 -44.5t-31.5 -121.5t31.5 -121.5t95.5 -44.5z" />
    <glyph glyph-name="Gdotaccent" unicode="&#x120;" horiz-adv-x="718" 
d="M430 787h-124v123h124v-123zM367 -9q-154 0 -237 98t-83 259q0 162 83 262q84 99 237 99q126 0 205 -68q80 -67 90 -174h-120q-9 62 -53.5 98t-121.5 36q-99 0 -149.5 -67.5t-50.5 -185.5q0 -117 50.5 -183.5t149.5 -66.5q84 0 132.5 46.5t53.5 123.5h-166v104h284v-67
q0 -143 -83 -229q-82 -85 -221 -85z" />
    <glyph glyph-name="gdotaccent" unicode="&#x121;" 
d="M340 603h-124v123h124v-123zM281 -238q-100 0 -163 51q-63 50 -64 131h111q3 -36 34.5 -60t81.5 -24q60 0 92.5 31t32.5 83v88h-4q-47 -71 -148 -71t-158 74q-55 73 -57 193q2 123 58 194q58 73 157 73q101 0 148 -71h4l13 62h101v-544q0 -93 -66 -151q-65 -59 -173 -59z
M282 92q63 0 95.5 45t32.5 121q0 75 -33 120.5t-95 45.5q-64 0 -95.5 -44.5t-31.5 -121.5t31.5 -121.5t95.5 -44.5z" />
    <glyph glyph-name="Gcommaaccent" unicode="&#x122;" horiz-adv-x="718" 
d="M367 -9q-154 0 -237 98t-83 259q0 162 83 262q84 99 237 99q126 0 205 -68q80 -67 90 -174h-120q-9 62 -53.5 98t-121.5 36q-99 0 -149.5 -67.5t-50.5 -185.5q0 -117 50.5 -183.5t149.5 -66.5q84 0 132.5 46.5t53.5 123.5h-166v104h284v-67q0 -143 -83 -229
q-82 -85 -221 -85zM375 -214h-79v10l20 153h118v-10z" />
    <glyph glyph-name="gcommaaccent" unicode="&#x123;" 
d="M279 740h79v-10l-20 -153h-118v10zM281 -238q-100 0 -163 51q-63 50 -64 131h111q3 -36 34.5 -60t81.5 -24q60 0 92.5 31t32.5 83v88h-4q-47 -71 -148 -71t-158 74q-55 73 -57 193q2 123 58 194q58 73 157 73q101 0 148 -71h4l13 62h101v-544q0 -93 -66 -151
q-65 -59 -173 -59zM282 92q63 0 95.5 45t32.5 121q0 75 -33 120.5t-95 45.5q-64 0 -95.5 -44.5t-31.5 -121.5t31.5 -121.5t95.5 -44.5z" />
    <glyph glyph-name="Hcircumflex" unicode="&#x124;" horiz-adv-x="735" 
d="M370 838h-4l-65 -69h-98v10l98 136h134l98 -136v-10h-98zM531 415v285h117v-700h-117v308h-327v-308h-117v700h117v-285h327z" />
    <glyph glyph-name="hcircumflex" unicode="&#x125;" horiz-adv-x="591" 
d="M66 792h-98v10l98 136h134l98 -136v-10h-98l-65 69h-4zM187 0h-114v740h114v-291h4q48 76 150 76q87 0 137 -50.5t50 -137.5v-337h-114v309q0 113 -106 113q-54 0 -87.5 -37.5t-33.5 -100.5v-284z" />
    <glyph glyph-name="Hbar" unicode="&#x126;" horiz-adv-x="778" 
d="M670 615h54v-97h-54v-518h-117v308h-327v-308h-117v518h-57v97h57v85h117v-85h327v85h117v-85zM226 415h327v103h-327v-103z" />
    <glyph glyph-name="hbar" unicode="&#x127;" horiz-adv-x="591" 
d="M341 525q87 0 137 -50.5t50 -137.5v-337h-114v309q0 113 -106 113q-54 0 -87.5 -37.5t-33.5 -100.5v-284h-114v591h-62v80h62v69h114v-69h114v-80h-114v-142h4q48 76 150 76z" />
    <glyph glyph-name="Itilde" unicode="&#x128;" horiz-adv-x="292" 
d="M197 776q-32 0 -67 20l-14 9q-23 14 -39 14q-14 0 -23.5 -11t-9.5 -30h-73v15q0 52 27.5 81.5t74.5 29.5q33 0 68 -20l15 -9q23 -13 38 -13q32 0 32 40h72v-15q0 -54 -26.5 -82.5t-74.5 -28.5zM205 0h-118v700h118v-700z" />
    <glyph glyph-name="itilde" unicode="&#x129;" horiz-adv-x="250" 
d="M180 592q-32 0 -67 20l-14 9q-23 14 -39 14q-14 0 -23.5 -11t-9.5 -30h-73v15q0 52 27.5 81.5t74.5 29.5q33 0 68 -20l15 -9q23 -13 38 -13q32 0 32 40h72v-15q0 -54 -26.5 -82.5t-74.5 -28.5zM187 0h-114v516h114v-516z" />
    <glyph glyph-name="Imacron" unicode="&#x12a;" horiz-adv-x="292" 
d="M289 797h-281v94h281v-94zM205 0h-118v700h118v-700z" />
    <glyph glyph-name="imacron" unicode="&#x12b;" horiz-adv-x="250" 
d="M272 613h-281v94h281v-94zM187 0h-114v516h114v-516z" />
    <glyph glyph-name="Ibreve" unicode="&#x12c;" horiz-adv-x="292" 
d="M147 769q-72 0 -112 39t-40 106h88q3 -59 64 -59q62 0 65 59h88q0 -68 -40 -106.5t-113 -38.5zM205 0h-118v700h118v-700z" />
    <glyph glyph-name="ibreve" unicode="&#x12d;" horiz-adv-x="250" 
d="M130 585q-72 0 -112 39t-40 106h88q3 -59 64 -59q62 0 65 59h88q0 -68 -40 -106.5t-113 -38.5zM187 0h-114v516h114v-516z" />
    <glyph glyph-name="Iogonek" unicode="&#x12e;" horiz-adv-x="292" 
d="M205 700v-700q-85 -37 -85 -96q0 -21 14.5 -33t36.5 -12h34v-80h-59q-52 0 -87.5 28t-35.5 75q0 73 72 118h-8v700h118z" />
    <glyph glyph-name="iogonek" unicode="&#x12f;" horiz-adv-x="250" 
d="M68 603v123h124v-123h-124zM77 0h-4v516h114v-516q-85 -37 -85 -96q0 -21 14.5 -33t36.5 -12h34v-80h-59q-52 0 -87.5 28t-35.5 75q0 73 72 118z" />
    <glyph glyph-name="Idot" unicode="&#x130;" horiz-adv-x="292" 
d="M209 787h-124v123h124v-123zM205 0h-118v700h118v-700z" />
    <glyph glyph-name="dotlessi" unicode="&#x131;" horiz-adv-x="250" 
d="M187 0h-114v516h114v-516z" />
    <glyph glyph-name="IJ" unicode="&#x132;" horiz-adv-x="830" 
d="M205 0h-118v700h118v-700zM531 -9q-101 0 -160 59q-58 59 -58 154h116q1 -49 27.5 -76.5t76.5 -27.5t76 29t26 81v490h118v-490q0 -100 -59.5 -159.5t-162.5 -59.5z" />
    <glyph glyph-name="ij" unicode="&#x133;" horiz-adv-x="509" 
d="M192 603h-124v123h124v-123zM452 603h-124v123h124v-123zM187 0h-114v516h114v-516zM281 -238h-52v104h38q66 0 66 73v577h114v-593q0 -78 -43.5 -119.5t-122.5 -41.5z" />
    <glyph glyph-name="Jcircumflex" unicode="&#x134;" horiz-adv-x="538" 
d="M334 769h-98v10l98 136h134l98 -136v-10h-98l-65 69h-4zM239 -9q-101 0 -160 59q-58 59 -58 154h116q1 -49 27.5 -76.5t76.5 -27.5t76 29t26 81v490h118v-490q0 -100 -59.5 -159.5t-162.5 -59.5z" />
    <glyph glyph-name="jcircumflex" unicode="&#x135;" horiz-adv-x="259" 
d="M73 585h-98v10l98 136h134l98 -136v-10h-98l-65 69h-4zM31 -238h-52v104h38q66 0 66 73v577h114v-593q0 -78 -43.5 -119.5t-122.5 -41.5z" />
    <glyph glyph-name="Kcommaaccent" unicode="&#x136;" horiz-adv-x="650" 
d="M629 690l-308 -323l319 -357v-10h-139l-297 333v-333h-117v700h117v-301l287 301h138v-10zM276 -214v10l20 153h118v-10l-59 -153h-79z" />
    <glyph glyph-name="kcommaaccent" unicode="&#x137;" horiz-adv-x="535" 
d="M511 506l-209 -224l217 -272v-10h-135l-201 254v-254h-110v740h110v-434l194 210h134v-10zM206 -214v10l20 153h118v-10l-59 -153h-79z" />
    <glyph glyph-name="kgreenlandic" unicode="&#x138;" horiz-adv-x="535" 
d="M511 506l-209 -229l217 -267v-10h-135l-201 250v-250h-110v516h110v-215l194 215h134v-10z" />
    <glyph glyph-name="Lacute" unicode="&#x139;" horiz-adv-x="552" 
d="M176 767h-90v10l72 140h134v-10zM534 0h-447v700h117v-594h330v-106z" />
    <glyph glyph-name="lacute" unicode="&#x13a;" horiz-adv-x="250" 
d="M159 790h-90v10l72 140h134v-10zM187 0h-114v740h114v-740z" />
    <glyph glyph-name="Lcommaaccent" unicode="&#x13b;" horiz-adv-x="552" 
d="M534 0h-447v700h117v-594h330v-106zM312 -214h-79v10l20 153h118v-10z" />
    <glyph glyph-name="lcommaaccent" unicode="&#x13c;" horiz-adv-x="250" 
d="M187 0h-114v740h114v-740zM129 -214h-79v10l20 153h118v-10z" />
    <glyph glyph-name="Lcaron" unicode="&#x13d;" horiz-adv-x="552" 
d="M534 0h-447v700h117v-594h330v-106zM401 530h-77v170h118v-10z" />
    <glyph glyph-name="lcaron" unicode="&#x13e;" horiz-adv-x="291" 
d="M187 0h-114v740h114v-740zM313 570h-77v170h118v-10z" />
    <glyph glyph-name="Ldot" unicode="&#x13f;" horiz-adv-x="600" 
d="M534 0h-447v700h117v-594h330v-106zM458 304h-132v130h132v-130z" />
    <glyph glyph-name="ldot" unicode="&#x140;" horiz-adv-x="403" 
d="M187 0h-114v740h114v-740zM375 304h-132v130h132v-130z" />
    <glyph glyph-name="Lslash" unicode="&#x141;" horiz-adv-x="622" 
d="M274 299v-193h330v-106h-447v253l-60 -23h-10v99l70 27v344h117v-298l176 69h10v-100z" />
    <glyph glyph-name="lslash" unicode="&#x142;" horiz-adv-x="357" 
d="M316 463h10v-97l-90 -43v-323h-114v268l-71 -34h-10v95l81 39v372h114v-316z" />
    <glyph glyph-name="Nacute" unicode="&#x143;" horiz-adv-x="743" 
d="M421 767h-90v10l72 140h134v-10zM202 0h-115v700h134l315 -514h4v514h116v-700h-135l-315 511h-4v-511z" />
    <glyph glyph-name="nacute" unicode="&#x144;" horiz-adv-x="587" 
d="M356 583h-90v10l72 140h134v-10zM187 0h-114v516h101l9 -67h4q48 76 151 76q86 0 136 -50.5t50 -137.5v-337h-114v309q0 113 -105 113q-54 0 -86 -37t-32 -100v-285z" />
    <glyph glyph-name="Ncommaaccent" unicode="&#x145;" horiz-adv-x="743" 
d="M202 0h-115v700h134l315 -514h4v514h116v-700h-135l-315 511h-4v-511zM368 -214h-79v10l20 153h118v-10z" />
    <glyph glyph-name="ncommaaccent" unicode="&#x146;" horiz-adv-x="587" 
d="M187 0h-114v516h101l9 -67h4q48 76 151 76q86 0 136 -50.5t50 -137.5v-337h-114v309q0 113 -105 113q-54 0 -86 -37t-32 -100v-285zM306 -214h-79v10l20 153h118v-10z" />
    <glyph glyph-name="Ncaron" unicode="&#x147;" horiz-adv-x="743" 
d="M458 769h-134l-98 136v10h98l64 -69h4l66 69h98v-10zM202 0h-115v700h134l315 -514h4v514h116v-700h-135l-315 511h-4v-511z" />
    <glyph glyph-name="ncaron" unicode="&#x148;" horiz-adv-x="587" 
d="M393 585h-134l-98 136v10h98l64 -69h4l66 69h98v-10zM187 0h-114v516h101l9 -67h4q48 76 151 76q86 0 136 -50.5t50 -137.5v-337h-114v309q0 113 -105 113q-54 0 -86 -37t-32 -100v-285z" />
    <glyph glyph-name="napostrophe" unicode="&#x149;" horiz-adv-x="600" 
d="M18 463h-90v10l31 235h129v-10zM187 0h-114v516h101l9 -67h4q48 76 151 76q86 0 136 -50.5t50 -137.5v-337h-114v309q0 113 -105 113q-54 0 -86 -37t-32 -100v-285z" />
    <glyph glyph-name="Eng" unicode="&#x14a;" horiz-adv-x="743" 
d="M540 186v514h116v-720q0 -100 -59.5 -159.5t-162.5 -59.5v109q51 0 78.5 29t27.5 81v20h-19l-315 511h-4v-511h-115v700h134l315 -514h4z" />
    <glyph glyph-name="eng" unicode="&#x14b;" horiz-adv-x="587" 
d="M338 525q86 0 136 -50t50 -138v-414q0 -78 -43 -119.5t-122 -41.5q-26 0 -53 7v100q20 -3 38 -3q66 0 66 73v370q0 113 -105 113q-54 0 -86 -37t-32 -100v-285h-114v516h101l9 -67h4q48 76 151 76z" />
    <glyph glyph-name="Omacron" unicode="&#x14c;" horiz-adv-x="740" 
d="M515 797h-281v94h281v-94zM370 -9q-159 0 -241 100t-82 259t82 259t241 100q158 0 240 -100q83 -101 83 -259t-83 -259q-82 -100 -240 -100zM370 601q-104 0 -154 -69q-49 -68 -49 -182q0 -117 51.5 -184t151.5 -67t151.5 67t51.5 184t-51.5 184t-151.5 67z" />
    <glyph glyph-name="omacron" unicode="&#x14d;" horiz-adv-x="566" 
d="M425 613h-281v94h281v-94zM283 -9q-119 0 -182 74q-62 74 -62 193q0 118 63 192q64 75 181 75t180 -75q64 -73 64 -192q0 -120 -63 -193q-63 -74 -181 -74zM283 92q128 0 128 166q0 78 -32 122t-96 44t-96 -44t-32 -122q0 -79 33 -122.5t95 -43.5z" />
    <glyph glyph-name="Obreve" unicode="&#x14e;" horiz-adv-x="740" 
d="M373 769q-72 0 -112 39t-40 106h88q3 -59 64 -59q62 0 65 59h88q0 -68 -40 -106.5t-113 -38.5zM370 -9q-159 0 -241 100t-82 259t82 259t241 100q158 0 240 -100q83 -101 83 -259t-83 -259q-82 -100 -240 -100zM370 601q-104 0 -154 -69q-49 -68 -49 -182
q0 -117 51.5 -184t151.5 -67t151.5 67t51.5 184t-51.5 184t-151.5 67z" />
    <glyph glyph-name="obreve" unicode="&#x14f;" horiz-adv-x="566" 
d="M283 585q-72 0 -112 39t-40 106h88q3 -59 64 -59q62 0 65 59h88q0 -68 -40 -106.5t-113 -38.5zM283 -9q-119 0 -182 74q-62 74 -62 193q0 118 63 192q64 75 181 75t180 -75q64 -73 64 -192q0 -120 -63 -193q-63 -74 -181 -74zM283 92q128 0 128 166q0 78 -32 122t-96 44
t-96 -44t-32 -122q0 -79 33 -122.5t95 -43.5z" />
    <glyph glyph-name="Ohungarumlaut" unicode="&#x150;" horiz-adv-x="740" 
d="M316 767h-79v10l50 140h127v-10zM480 767h-79v10l51 140h127v-10zM370 -9q-159 0 -241 100t-82 259t82 259t241 100q158 0 240 -100q83 -101 83 -259t-83 -259q-82 -100 -240 -100zM370 601q-104 0 -154 -69q-49 -68 -49 -182q0 -117 51.5 -184t151.5 -67t151.5 67
t51.5 184t-51.5 184t-151.5 67z" />
    <glyph glyph-name="ohungarumlaut" unicode="&#x151;" horiz-adv-x="566" 
d="M226 583h-79v10l50 140h127v-10zM390 583h-79v10l51 140h127v-10zM283 -9q-119 0 -182 74q-62 74 -62 193q0 118 63 192q64 75 181 75t180 -75q64 -73 64 -192q0 -120 -63 -193q-63 -74 -181 -74zM283 92q128 0 128 166q0 78 -32 122t-96 44t-96 -44t-32 -122
q0 -79 33 -122.5t95 -43.5z" />
    <glyph glyph-name="OE" unicode="&#x152;" horiz-adv-x="1097" 
d="M1046 700v-106h-355v-180h324v-106h-324v-203h355v-105h-472v58q-79 -67 -204 -67q-159 0 -241 100t-82 259t82 259t241 100q125 0 204 -67v58h472zM370 601q-104 0 -154 -69q-49 -68 -49 -182q0 -117 51.5 -184t151.5 -67t151.5 67t51.5 184t-51.5 184t-151.5 67z" />
    <glyph glyph-name="oe" unicode="&#x153;" horiz-adv-x="926" 
d="M886 274v-48h-357q0 -65 32.5 -102t93.5 -37q45 0 74.5 18.5t37.5 51.5h112q-10 -72 -73 -119q-62 -47 -151 -47q-116 0 -184 83q-65 -83 -188 -83q-119 0 -182 74q-62 74 -62 193q0 118 63 192q64 75 181 75q121 0 187 -82q63 82 183 82q109 0 171 -71t62 -180zM530 307
h239q-1 55 -31 88t-85 33q-58 0 -89.5 -32.5t-33.5 -88.5zM283 92q128 0 128 166q0 78 -32 122t-96 44t-96 -44t-32 -122q0 -79 33 -122.5t95 -43.5z" />
    <glyph glyph-name="Racute" unicode="&#x154;" horiz-adv-x="670" 
d="M486 917v-10l-116 -140h-90v10l72 140h134zM467 278l179 -268v-10h-133l-169 264h-140v-264h-117v700h296q105 0 167 -62t62 -154q0 -75 -39 -129.5t-106 -76.5zM376 594h-172v-224h172q56 0 85.5 30t29.5 83q0 52 -30 81.5t-85 29.5z" />
    <glyph glyph-name="racute" unicode="&#x155;" horiz-adv-x="390" 
d="M247 583h-90v10l72 140h134v-10zM183 0h-110v516h96l10 -82h4q16 42 51 65.5t83 23.5h42v-106h-44q-65 0 -98.5 -43t-33.5 -122v-252z" />
    <glyph glyph-name="Rcommaaccent" unicode="&#x156;" horiz-adv-x="670" 
d="M467 278l179 -268v-10h-133l-169 264h-140v-264h-117v700h296q105 0 167 -62t62 -154q0 -75 -39 -129.5t-106 -76.5zM376 594h-172v-224h172q56 0 85.5 30t29.5 83q0 52 -30 81.5t-85 29.5zM277 -214v10l20 153h118v-10l-59 -153h-79z" />
    <glyph glyph-name="rcommaaccent" unicode="&#x157;" horiz-adv-x="390" 
d="M183 0h-110v516h96l10 -82h4q16 42 51 65.5t83 23.5h42v-106h-44q-65 0 -98.5 -43t-33.5 -122v-252zM160 -214h-79v10l20 153h118v-10z" />
    <glyph glyph-name="Rcaron" unicode="&#x158;" horiz-adv-x="670" 
d="M505 905l-98 -136h-134l-98 136v10h98l64 -69h4l66 69h98v-10zM467 278l179 -268v-10h-133l-169 264h-140v-264h-117v700h296q105 0 167 -62t62 -154q0 -75 -39 -129.5t-106 -76.5zM376 594h-172v-224h172q56 0 85.5 30t29.5 83q0 52 -30 81.5t-85 29.5z" />
    <glyph glyph-name="rcaron" unicode="&#x159;" horiz-adv-x="390" 
d="M284 585h-134l-98 136v10h98l64 -69h4l66 69h98v-10zM183 0h-110v516h96l10 -82h4q16 42 51 65.5t83 23.5h42v-106h-44q-65 0 -98.5 -43t-33.5 -122v-252z" />
    <glyph glyph-name="Sacute" unicode="&#x15a;" horiz-adv-x="632" 
d="M348 767h-90v10l72 140h134v-10zM315 -9q-128 0 -200.5 61.5t-77.5 170.5h119q4 -61 45.5 -94t113.5 -33q154 0 154 100q0 39 -26 62t-82 35l-102 22q-100 22 -149.5 69t-49.5 129q0 89 69 142q69 54 187 54q116 0 188 -60q72 -59 74 -157h-119q-3 52 -40 81.5t-105 29.5
q-133 0 -133 -90q0 -65 102 -87l95 -20q212 -44 212 -208q0 -97 -71 -152t-204 -55z" />
    <glyph glyph-name="sacute" unicode="&#x15b;" horiz-adv-x="511" 
d="M289 583h-90v10l72 140h134v-10zM258 -9q-101 0 -159 48.5t-60 132.5h114q0 -38 28 -60.5t77 -22.5q99 0 99 58q0 45 -68 59l-91 17q-143 29 -143 152q0 66 54 108t145 42q93 0 149.5 -47t56.5 -122h-112q-2 36 -27 56.5t-69 20.5q-39 0 -62.5 -15.5t-23.5 -43.5
q0 -45 68 -56l88 -17q77 -16 113.5 -51.5t36.5 -102.5q0 -73 -61 -115q-61 -41 -153 -41z" />
    <glyph glyph-name="Scircumflex" unicode="&#x15c;" horiz-adv-x="632" 
d="M253 769h-98v10l98 136h134l98 -136v-10h-98l-65 69h-4zM315 -9q-128 0 -200.5 61.5t-77.5 170.5h119q4 -61 45.5 -94t113.5 -33q154 0 154 100q0 39 -26 62t-82 35l-102 22q-100 22 -149.5 69t-49.5 129q0 89 69 142q69 54 187 54q116 0 188 -60q72 -59 74 -157h-119
q-3 52 -40 81.5t-105 29.5q-133 0 -133 -90q0 -65 102 -87l95 -20q212 -44 212 -208q0 -97 -71 -152t-204 -55z" />
    <glyph glyph-name="scircumflex" unicode="&#x15d;" horiz-adv-x="511" 
d="M194 585h-98v10l98 136h134l98 -136v-10h-98l-65 69h-4zM258 -9q-101 0 -159 48.5t-60 132.5h114q0 -38 28 -60.5t77 -22.5q99 0 99 58q0 45 -68 59l-91 17q-143 29 -143 152q0 66 54 108t145 42q93 0 149.5 -47t56.5 -122h-112q-2 36 -27 56.5t-69 20.5
q-39 0 -62.5 -15.5t-23.5 -43.5q0 -45 68 -56l88 -17q77 -16 113.5 -51.5t36.5 -102.5q0 -73 -61 -115q-61 -41 -153 -41z" />
    <glyph glyph-name="Scedilla" unicode="&#x15e;" horiz-adv-x="632" 
d="M590 198q0 -90 -61 -144t-176 -62l-22 -34q44 -2 70.5 -25.5t26.5 -60.5q0 -42 -34 -68t-96 -26q-53 0 -87 25.5t-34 69.5h73q0 -14 13 -23t34 -9q47 0 47 32q0 31 -44 31h-32l-25 31l29 58q-109 10 -170 70.5t-65 159.5h119q4 -61 45.5 -94t113.5 -33q154 0 154 100
q0 39 -26 62t-82 35l-102 22q-100 22 -149.5 69t-49.5 129q0 89 69 142q69 54 187 54q116 0 188 -60q72 -59 74 -157h-119q-3 52 -40 81.5t-105 29.5q-133 0 -133 -90q0 -65 102 -87l95 -20q212 -44 212 -208z" />
    <glyph glyph-name="scedilla" unicode="&#x15f;" horiz-adv-x="511" 
d="M472 147q0 -65 -48.5 -105.5t-130.5 -48.5l-22 -35q44 -2 70.5 -25.5t26.5 -60.5q0 -42 -34 -68t-96 -26q-53 0 -87 25.5t-34 69.5h73q0 -14 13 -23t34 -9q47 0 47 32q0 31 -44 31h-32l-25 31l30 59q-81 10 -126.5 56.5t-47.5 121.5h114q0 -38 28 -60.5t77 -22.5
q99 0 99 58q0 45 -68 59l-91 17q-143 29 -143 152q0 66 54 108t145 42q93 0 149.5 -47t56.5 -122h-112q-2 36 -27 56.5t-69 20.5q-39 0 -62.5 -15.5t-23.5 -43.5q0 -45 68 -56l88 -17q77 -16 113.5 -51.5t36.5 -102.5z" />
    <glyph glyph-name="Scaron" unicode="&#x160;" horiz-adv-x="632" 
d="M385 769h-134l-98 136v10h98l64 -69h4l66 69h98v-10zM315 -9q-128 0 -200.5 61.5t-77.5 170.5h119q4 -61 45.5 -94t113.5 -33q154 0 154 100q0 39 -26 62t-82 35l-102 22q-100 22 -149.5 69t-49.5 129q0 89 69 142q69 54 187 54q116 0 188 -60q72 -59 74 -157h-119
q-3 52 -40 81.5t-105 29.5q-133 0 -133 -90q0 -65 102 -87l95 -20q212 -44 212 -208q0 -97 -71 -152t-204 -55z" />
    <glyph glyph-name="scaron" unicode="&#x161;" horiz-adv-x="511" 
d="M326 585h-134l-98 136v10h98l64 -69h4l66 69h98v-10zM258 -9q-101 0 -159 48.5t-60 132.5h114q0 -38 28 -60.5t77 -22.5q99 0 99 58q0 45 -68 59l-91 17q-143 29 -143 152q0 66 54 108t145 42q93 0 149.5 -47t56.5 -122h-112q-2 36 -27 56.5t-69 20.5q-39 0 -62.5 -15.5
t-23.5 -43.5q0 -45 68 -56l88 -17q77 -16 113.5 -51.5t36.5 -102.5q0 -73 -61 -115q-61 -41 -153 -41z" />
    <glyph glyph-name="uni0162" unicode="&#x162;" horiz-adv-x="592" 
d="M355 0h-118v594h-211v106h540v-106h-211v-594zM294 -214h-79v10l20 153h118v-10z" />
    <glyph glyph-name="uni0163" unicode="&#x163;" horiz-adv-x="402" 
d="M357 0h-88q-153 0 -153 150v269h-85v97h90v137h109v-137h125v-97h-125v-249q0 -37 16 -53.5t51 -16.5h60v-100zM241 -214h-79v10l20 153h118v-10z" />
    <glyph glyph-name="Tcaron" unicode="&#x164;" horiz-adv-x="592" 
d="M367 769h-134l-98 136v10h98l64 -69h4l66 69h98v-10zM355 0h-118v594h-211v106h540v-106h-211v-594z" />
    <glyph glyph-name="tcaron" unicode="&#x165;" horiz-adv-x="402" 
d="M365 570h-76v170h118v-10zM357 0h-88q-153 0 -153 150v269h-85v97h90v137h109v-137h125v-97h-125v-249q0 -37 16 -53.5t51 -16.5h60v-100z" />
    <glyph glyph-name="Tbar" unicode="&#x166;" horiz-adv-x="595" 
d="M566 700v-106h-211v-169h171v-99h-171v-326h-118v326h-168v99h168v169h-211v106h540z" />
    <glyph glyph-name="tbar" unicode="&#x167;" horiz-adv-x="402" 
d="M347 98h10v-96q-36 -11 -88 -11q-153 0 -153 150v120h-85v84h85v74h-85v97h90v109l99 28h10v-137h125v-97h-125v-74h117v-84h-117v-100q0 -37 16 -53.5t51 -16.5q29 0 50 7z" />
    <glyph glyph-name="Utilde" unicode="&#x168;" horiz-adv-x="714" 
d="M404 776q-32 0 -67 20l-14 9q-23 14 -39 14q-14 0 -23.5 -11t-9.5 -30h-73v15q0 52 27.5 81.5t74.5 29.5q33 0 68 -20l15 -9q23 -13 38 -13q32 0 32 40h72v-15q0 -54 -26.5 -82.5t-74.5 -28.5zM356 -9q-127 0 -203 70t-76 199v440h117v-438q0 -78 40.5 -121.5
t121.5 -43.5q82 0 122.5 43.5t40.5 121.5v438h118v-440q0 -128 -77 -199q-76 -70 -204 -70z" />
    <glyph glyph-name="utilde" unicode="&#x169;" horiz-adv-x="580" 
d="M342 592q-32 0 -67 20l-14 9q-23 14 -39 14q-14 0 -23.5 -11t-9.5 -30h-73v15q0 52 27.5 81.5t74.5 29.5q33 0 68 -20l15 -9q23 -13 38 -13q32 0 32 40h72v-15q0 -54 -26.5 -82.5t-74.5 -28.5zM253 -8q-86 0 -136 50t-50 138v336h114v-308q0 -114 105 -114q54 0 86 37
t32 100v285h114v-516h-101l-9 68h-4q-46 -76 -151 -76z" />
    <glyph glyph-name="Umacron" unicode="&#x16a;" horiz-adv-x="714" 
d="M496 797h-281v94h281v-94zM356 -9q-127 0 -203 70t-76 199v440h117v-438q0 -78 40.5 -121.5t121.5 -43.5q82 0 122.5 43.5t40.5 121.5v438h118v-440q0 -128 -77 -199q-76 -70 -204 -70z" />
    <glyph glyph-name="umacron" unicode="&#x16b;" horiz-adv-x="580" 
d="M434 613h-281v94h281v-94zM253 -8q-86 0 -136 50t-50 138v336h114v-308q0 -114 105 -114q54 0 86 37t32 100v285h114v-516h-101l-9 68h-4q-46 -76 -151 -76z" />
    <glyph glyph-name="Ubreve" unicode="&#x16c;" horiz-adv-x="714" 
d="M354 769q-72 0 -112 39t-40 106h88q3 -59 64 -59q62 0 65 59h88q0 -68 -40 -106.5t-113 -38.5zM356 -9q-127 0 -203 70t-76 199v440h117v-438q0 -78 40.5 -121.5t121.5 -43.5q82 0 122.5 43.5t40.5 121.5v438h118v-440q0 -128 -77 -199q-76 -70 -204 -70z" />
    <glyph glyph-name="ubreve" unicode="&#x16d;" horiz-adv-x="580" 
d="M292 585q-72 0 -112 39t-40 106h88q3 -59 64 -59q62 0 65 59h88q0 -68 -40 -106.5t-113 -38.5zM253 -8q-86 0 -136 50t-50 138v336h114v-308q0 -114 105 -114q54 0 86 37t32 100v285h114v-516h-101l-9 68h-4q-46 -76 -151 -76z" />
    <glyph glyph-name="Uring" unicode="&#x16e;" horiz-adv-x="714" 
d="M353 754q-49 0 -81 31t-32 80t32 80.5t81 31.5q51 0 83 -31t32 -81q0 -49 -32 -80t-83 -31zM352 820q30 -3 42 21t-0.5 48t-41.5 22q-28 2 -39.5 -22t0 -48t39.5 -21zM356 -9q-127 0 -203 70t-76 199v440h117v-438q0 -78 40.5 -121.5t121.5 -43.5q82 0 122.5 43.5
t40.5 121.5v438h118v-440q0 -128 -77 -199q-76 -70 -204 -70z" />
    <glyph glyph-name="uring" unicode="&#x16f;" horiz-adv-x="580" 
d="M291 570q-49 0 -81 31t-32 80t32 80.5t81 31.5q51 0 83 -31t32 -81q0 -49 -32 -80t-83 -31zM290 636q30 -3 42 21t-0.5 48t-41.5 22q-28 2 -39.5 -22t0 -48t39.5 -21zM253 -8q-86 0 -136 50t-50 138v336h114v-308q0 -114 105 -114q54 0 86 37t32 100v285h114v-516h-101
l-9 68h-4q-46 -76 -151 -76z" />
    <glyph glyph-name="Uhungarumlaut" unicode="&#x170;" horiz-adv-x="714" 
d="M297 767h-79v10l50 140h127v-10zM461 767h-79v10l51 140h127v-10zM356 -9q-127 0 -203 70t-76 199v440h117v-438q0 -78 40.5 -121.5t121.5 -43.5q82 0 122.5 43.5t40.5 121.5v438h118v-440q0 -128 -77 -199q-76 -70 -204 -70z" />
    <glyph glyph-name="uhungarumlaut" unicode="&#x171;" horiz-adv-x="580" 
d="M235 583h-79v10l50 140h127v-10zM399 583h-79v10l51 140h127v-10zM253 -8q-86 0 -136 50t-50 138v336h114v-308q0 -114 105 -114q54 0 86 37t32 100v285h114v-516h-101l-9 68h-4q-46 -76 -151 -76z" />
    <glyph glyph-name="Uogonek" unicode="&#x172;" horiz-adv-x="714" 
d="M519 262v438h118v-440q0 -107 -54.5 -175t-152.5 -87q-80 -38 -80 -94q0 -21 14.5 -33t36.5 -12h34v-80h-59q-52 0 -87.5 28t-35.5 75q0 67 62 111q-110 12 -174 82t-64 185v440h117v-438q0 -78 40.5 -121.5t121.5 -43.5q82 0 122.5 43.5t40.5 121.5z" />
    <glyph glyph-name="uogonek" unicode="&#x173;" horiz-adv-x="580" 
d="M404 231v285h114v-516h-3q-85 -37 -85 -96q0 -21 14.5 -33t36.5 -12h34v-80h-59q-52 0 -87.5 28t-35.5 75q0 77 83 125l-8 61h-4q-46 -76 -151 -76q-86 0 -136 50t-50 138v336h114v-308q0 -114 105 -114q54 0 86 37t32 100z" />
    <glyph glyph-name="Wcircumflex" unicode="&#x174;" horiz-adv-x="924" 
d="M396 769h-98v10l98 136h134l98 -136v-10h-98l-65 69h-4zM325 0h-137l-167 690v10h121l117 -529h4l136 529h126l138 -529h4l115 529h121v-10l-168 -690h-137l-133 518h-4z" />
    <glyph glyph-name="wcircumflex" unicode="&#x175;" horiz-adv-x="786" 
d="M333 579h-98v10l98 136h134l98 -136v-10h-98l-65 69h-4zM290 0h-137l-137 506v10h114l92 -380h4l99 380h137l99 -380h4l92 380h113v-10l-137 -506h-137l-99 380h-4z" />
    <glyph glyph-name="Ycircumflex" unicode="&#x176;" horiz-adv-x="670" 
d="M277 769h-98v10l98 136h134l98 -136v-10h-98l-65 69h-4zM395 0h-118v286l-256 404v10h135l179 -298h4l176 298h134v-10l-254 -403v-287z" />
    <glyph glyph-name="ycircumflex" unicode="&#x177;" horiz-adv-x="544" 
d="M215 585h-98v10l98 136h134l98 -136v-10h-98l-65 69h-4zM16 506v10h119l134 -388h4l134 388h121v-10l-274 -735h-120v10l82 221l-12 2z" />
    <glyph glyph-name="Ydieresis" unicode="&#x178;" horiz-adv-x="670" 
d="M309 794h-114v114h114v-114zM494 794h-114v114h114v-114zM395 0h-118v286l-256 404v10h135l179 -298h4l176 298h134v-10l-254 -403v-287z" />
    <glyph glyph-name="Zacute" unicode="&#x179;" horiz-adv-x="597" 
d="M329 767h-90v10l72 140h134v-10zM561 0h-525v103l373 486v4h-364v107h510v-105l-372 -485v-4h378v-106z" />
    <glyph glyph-name="zacute" unicode="&#x17a;" horiz-adv-x="502" 
d="M286 583h-90v10l72 140h134v-10zM456 0h-410v95l270 320v4h-269v97h407v-96l-269 -319v-4h271v-97z" />
    <glyph glyph-name="Zdotaccent" unicode="&#x17b;" horiz-adv-x="597" 
d="M360 787h-124v123h124v-123zM561 0h-525v103l373 486v4h-364v107h510v-105l-372 -485v-4h378v-106z" />
    <glyph glyph-name="zdotaccent" unicode="&#x17c;" horiz-adv-x="502" 
d="M317 603h-124v123h124v-123zM456 0h-410v95l270 320v4h-269v97h407v-96l-269 -319v-4h271v-97z" />
    <glyph glyph-name="Zcaron" unicode="&#x17d;" horiz-adv-x="597" 
d="M366 769h-134l-98 136v10h98l64 -69h4l66 69h98v-10zM561 0h-525v103l373 486v4h-364v107h510v-105l-372 -485v-4h378v-106z" />
    <glyph glyph-name="zcaron" unicode="&#x17e;" horiz-adv-x="502" 
d="M323 585h-134l-98 136v10h98l64 -69h4l66 69h98v-10zM456 0h-410v95l270 320v4h-269v97h407v-96l-269 -319v-4h271v-97z" />
    <glyph glyph-name="florin" unicode="&#x192;" horiz-adv-x="455" 
d="M154 -229h-114v10l82 535h-90v96h105l20 135q27 177 197 177h70v-98h-60q-81 0 -95 -89l-19 -125h132v-96h-146z" />
    <glyph glyph-name="uni01CD" unicode="&#x1cd;" horiz-adv-x="691" 
d="M510 905l-98 -136h-134l-98 136v10h98l64 -69h4l66 69h98v-10zM271 700h147l251 -690v-10h-128l-55 162h-286l-55 -162h-124v10zM341 577l-106 -312h216l-106 312h-4z" />
    <glyph glyph-name="uni01CE" unicode="&#x1ce;" horiz-adv-x="546" 
d="M342 585h-134l-98 136v10h98l64 -69h4l66 69h98v-10zM219 -9q-83 0 -132 45q-48 46 -48 116q0 74 54 117t157 43h120v31q0 40 -26 64t-76 24q-44 0 -70 -21.5t-27 -55.5h-108q0 76 56 123.5t151 47.5q99 0 156 -51t57 -130v-344h-100l-8 61h-4q-48 -70 -152 -70zM245 82
q55 0 90 32.5t35 80.5v35h-115q-102 0 -102 -74q0 -34 24 -54t68 -20z" />
    <glyph glyph-name="uni01CF" unicode="&#x1cf;" horiz-adv-x="292" 
d="M215 769h-134l-98 136v10h98l64 -69h4l66 69h98v-10zM205 0h-118v700h118v-700z" />
    <glyph glyph-name="uni01D0" unicode="&#x1d0;" horiz-adv-x="250" 
d="M198 585h-134l-98 136v10h98l64 -69h4l66 69h98v-10zM187 0h-114v516h114v-516z" />
    <glyph glyph-name="uni01D1" unicode="&#x1d1;" horiz-adv-x="740" 
d="M441 769h-134l-98 136v10h98l64 -69h4l66 69h98v-10zM370 -9q-159 0 -241 100t-82 259t82 259t241 100q158 0 240 -100q83 -101 83 -259t-83 -259q-82 -100 -240 -100zM370 601q-104 0 -154 -69q-49 -68 -49 -182q0 -117 51.5 -184t151.5 -67t151.5 67t51.5 184
t-51.5 184t-151.5 67z" />
    <glyph glyph-name="uni01D2" unicode="&#x1d2;" horiz-adv-x="566" 
d="M351 585h-134l-98 136v10h98l64 -69h4l66 69h98v-10zM283 -9q-119 0 -182 74q-62 74 -62 193q0 118 63 192q64 75 181 75t180 -75q64 -73 64 -192q0 -120 -63 -193q-63 -74 -181 -74zM283 92q128 0 128 166q0 78 -32 122t-96 44t-96 -44t-32 -122q0 -79 33 -122.5
t95 -43.5z" />
    <glyph glyph-name="Gcaron" unicode="&#x1e6;" horiz-adv-x="718" 
d="M436 769h-134l-98 136v10h98l64 -69h4l66 69h98v-10zM367 -9q-154 0 -237 98t-83 259q0 162 83 262q84 99 237 99q126 0 205 -68q80 -67 90 -174h-120q-9 62 -53.5 98t-121.5 36q-99 0 -149.5 -67.5t-50.5 -185.5q0 -117 50.5 -183.5t149.5 -66.5q84 0 132.5 46.5
t53.5 123.5h-166v104h284v-67q0 -143 -83 -229q-82 -85 -221 -85z" />
    <glyph glyph-name="gcaron" unicode="&#x1e7;" 
d="M346 585h-134l-98 136v10h98l64 -69h4l66 69h98v-10zM281 -238q-100 0 -163 51q-63 50 -64 131h111q3 -36 34.5 -60t81.5 -24q60 0 92.5 31t32.5 83v88h-4q-47 -71 -148 -71t-158 74q-55 73 -57 193q2 123 58 194q58 73 157 73q101 0 148 -71h4l13 62h101v-544
q0 -93 -66 -151q-65 -59 -173 -59zM282 92q63 0 95.5 45t32.5 121q0 75 -33 120.5t-95 45.5q-64 0 -95.5 -44.5t-31.5 -121.5t31.5 -121.5t95.5 -44.5z" />
    <glyph glyph-name="Scommaaccent" unicode="&#x218;" horiz-adv-x="632" 
d="M315 -9q-128 0 -200.5 61.5t-77.5 170.5h119q4 -61 45.5 -94t113.5 -33q154 0 154 100q0 39 -26 62t-82 35l-102 22q-100 22 -149.5 69t-49.5 129q0 89 69 142q69 54 187 54q116 0 188 -60q72 -59 74 -157h-119q-3 52 -40 81.5t-105 29.5q-133 0 -133 -90q0 -65 102 -87
l95 -20q212 -44 212 -208q0 -97 -71 -152t-204 -55zM318 -214h-79v10l20 153h118v-10z" />
    <glyph glyph-name="scommaaccent" unicode="&#x219;" horiz-adv-x="511" 
d="M258 -9q-101 0 -159 48.5t-60 132.5h114q0 -38 28 -60.5t77 -22.5q99 0 99 58q0 45 -68 59l-91 17q-143 29 -143 152q0 66 54 108t145 42q93 0 149.5 -47t56.5 -122h-112q-2 36 -27 56.5t-69 20.5q-39 0 -62.5 -15.5t-23.5 -43.5q0 -45 68 -56l88 -17q77 -16 113.5 -51.5
t36.5 -102.5q0 -73 -61 -115q-61 -41 -153 -41zM258 -214h-79v10l20 153h118v-10z" />
    <glyph glyph-name="uni021A" unicode="&#x21a;" horiz-adv-x="592" 
d="M355 594v-594h-21l-27 -42q44 -2 70.5 -25.5t26.5 -60.5q0 -42 -34 -68t-96 -26q-53 0 -87 25.5t-34 69.5h73q0 -14 13 -23t34 -9q47 0 47 32q0 31 -44 31h-32l-25 31l33 65h-15v594h-211v106h540v-106h-211z" />
    <glyph glyph-name="uni021B" unicode="&#x21b;" horiz-adv-x="402" 
d="M357 100v-100h-76l-27 -42q44 -2 70.5 -25.5t26.5 -60.5q0 -42 -34 -68t-96 -26q-53 0 -87 25.5t-34 69.5h73q0 -14 13 -23t34 -9q47 0 47 32q0 31 -44 31h-32l-25 31l38 74q-88 28 -88 141v269h-85v97h90v137h109v-137h125v-97h-125v-249q0 -37 16 -53.5t51 -16.5h60z
" />
    <glyph glyph-name="uni0237" unicode="&#x237;" horiz-adv-x="259" 
d="M31 -238h-52v104h38q66 0 66 73v577h114v-593q0 -78 -43.5 -119.5t-122.5 -41.5z" />
    <glyph glyph-name="circumflex" unicode="&#x2c6;" horiz-adv-x="392" 
d="M129 585h-98v10l98 136h134l98 -136v-10h-98l-65 69h-4z" />
    <glyph glyph-name="caron" unicode="&#x2c7;" horiz-adv-x="392" 
d="M263 585h-134l-98 136v10h98l64 -69h4l66 69h98v-10z" />
    <glyph glyph-name="breve" unicode="&#x2d8;" horiz-adv-x="375" 
d="M187 585q-72 0 -112 39t-40 106h88q3 -59 64 -59q62 0 65 59h88q0 -68 -40 -106.5t-113 -38.5z" />
    <glyph glyph-name="dotaccent" unicode="&#x2d9;" horiz-adv-x="206" 
d="M165 603h-124v123h124v-123z" />
    <glyph glyph-name="ring" unicode="&#x2da;" horiz-adv-x="294" 
d="M146 570q-49 0 -81 31t-32 80t32 80.5t81 31.5q51 0 83 -31t32 -81q0 -49 -32 -80t-83 -31zM145 636q30 -3 42 21t-0.5 48t-41.5 22q-28 2 -39.5 -22t0 -48t39.5 -21z" />
    <glyph glyph-name="ogonek" unicode="&#x2db;" horiz-adv-x="248" 
d="M215 -221h-59q-52 0 -87.5 28t-35.5 75q0 89 102 134l80 -16q-85 -37 -85 -96q0 -21 14.5 -33t36.5 -12h34v-80z" />
    <glyph glyph-name="tilde" unicode="&#x2dc;" horiz-adv-x="385" 
d="M255 592q-32 0 -67 20l-14 9q-23 14 -39 14q-14 0 -23.5 -11t-9.5 -30h-73v15q0 52 27.5 81.5t74.5 29.5q33 0 68 -20l15 -9q23 -13 38 -13q32 0 32 40h72v-15q0 -54 -26.5 -82.5t-74.5 -28.5z" />
    <glyph glyph-name="hungarumlaut" unicode="&#x2dd;" horiz-adv-x="408" 
d="M112 583h-79v10l50 140h127v-10zM276 583h-79v10l51 140h127v-10z" />
    <glyph glyph-name="uni0326" unicode="&#x326;" horiz-adv-x="0" 
d="M-100 -214h-79v10l20 153h118v-10z" />
    <glyph glyph-name="Wgrave" unicode="&#x1e80;" horiz-adv-x="924" 
d="M529 767h-90l-116 140v10h134l72 -140v-10zM325 0h-137l-167 690v10h121l117 -529h4l136 529h126l138 -529h4l115 529h121v-10l-168 -690h-137l-133 518h-4z" />
    <glyph glyph-name="wgrave" unicode="&#x1e81;" horiz-adv-x="786" 
d="M466 577h-90l-116 140v10h134l72 -140v-10zM290 0h-137l-137 506v10h114l92 -380h4l99 380h137l99 -380h4l92 380h113v-10l-137 -506h-137l-99 380h-4z" />
    <glyph glyph-name="Wacute" unicode="&#x1e82;" horiz-adv-x="924" 
d="M491 767h-90v10l72 140h134v-10zM325 0h-137l-167 690v10h121l117 -529h4l136 529h126l138 -529h4l115 529h121v-10l-168 -690h-137l-133 518h-4z" />
    <glyph glyph-name="wacute" unicode="&#x1e83;" horiz-adv-x="786" 
d="M428 577h-90v10l72 140h134v-10zM290 0h-137l-137 506v10h114l92 -380h4l99 380h137l99 -380h4l92 380h113v-10l-137 -506h-137l-99 380h-4z" />
    <glyph glyph-name="Wdieresis" unicode="&#x1e84;" horiz-adv-x="924" 
d="M428 794h-114v114h114v-114zM613 794h-114v114h114v-114zM325 0h-137l-167 690v10h121l117 -529h4l136 529h126l138 -529h4l115 529h121v-10l-168 -690h-137l-133 518h-4z" />
    <glyph glyph-name="wdieresis" unicode="&#x1e85;" horiz-adv-x="786" 
d="M365 604h-114v114h114v-114zM550 604h-114v114h114v-114zM290 0h-137l-137 506v10h114l92 -380h4l99 380h137l99 -380h4l92 380h113v-10l-137 -506h-137l-99 380h-4z" />
    <glyph glyph-name="uni1EBC" unicode="&#x1ebc;" horiz-adv-x="610" 
d="M382 776q-32 0 -67 20l-14 9q-23 14 -39 14q-14 0 -23.5 -11t-9.5 -30h-73v15q0 52 27.5 81.5t74.5 29.5q33 0 68 -20l15 -9q23 -13 38 -13q32 0 32 40h72v-15q0 -54 -26.5 -82.5t-74.5 -28.5zM559 0h-472v700h472v-106h-355v-180h324v-106h-324v-203h355v-105z" />
    <glyph glyph-name="uni1EBD" unicode="&#x1ebd;" horiz-adv-x="554" 
d="M331 592q-32 0 -67 20l-14 9q-23 14 -39 14q-14 0 -23.5 -11t-9.5 -30h-73v15q0 52 27.5 81.5t74.5 29.5q33 0 68 -20l15 -9q23 -13 38 -13q32 0 32 40h72v-15q0 -54 -26.5 -82.5t-74.5 -28.5zM283 -9q-115 0 -179 75q-65 76 -65 192t62 192q63 75 180 75q109 0 171 -71
t62 -180v-48h-357q0 -65 33 -102t93 -37q94 0 113 70h111q-10 -72 -73 -119q-62 -47 -151 -47zM158 307h239q-1 55 -31 88t-85 33q-58 0 -89.5 -32.5t-33.5 -88.5z" />
    <glyph glyph-name="Ygrave" unicode="&#x1ef2;" horiz-adv-x="670" 
d="M410 767h-90l-116 140v10h134l72 -140v-10zM395 0h-118v286l-256 404v10h135l179 -298h4l176 298h134v-10l-254 -403v-287z" />
    <glyph glyph-name="ygrave" unicode="&#x1ef3;" horiz-adv-x="544" 
d="M348 583h-90l-116 140v10h134l72 -140v-10zM16 506v10h119l134 -388h4l134 388h121v-10l-274 -735h-120v10l82 221l-12 2z" />
    <glyph glyph-name="uni2000" unicode="&#x2000;" horiz-adv-x="488" 
 />
    <glyph glyph-name="uni2001" unicode="&#x2001;" horiz-adv-x="977" 
 />
    <glyph glyph-name="uni2002" unicode="&#x2002;" horiz-adv-x="488" 
 />
    <glyph glyph-name="uni2003" unicode="&#x2003;" horiz-adv-x="977" 
 />
    <glyph glyph-name="uni2004" unicode="&#x2004;" horiz-adv-x="325" 
 />
    <glyph glyph-name="uni2005" unicode="&#x2005;" horiz-adv-x="244" 
 />
    <glyph glyph-name="uni2006" unicode="&#x2006;" horiz-adv-x="162" 
 />
    <glyph glyph-name="uni2007" unicode="&#x2007;" horiz-adv-x="162" 
 />
    <glyph glyph-name="uni2008" unicode="&#x2008;" horiz-adv-x="122" 
 />
    <glyph glyph-name="uni2009" unicode="&#x2009;" horiz-adv-x="195" 
 />
    <glyph glyph-name="uni200A" unicode="&#x200a;" horiz-adv-x="54" 
 />
    <glyph glyph-name="uni2010" unicode="&#x2010;" horiz-adv-x="466" 
d="M386 241h-306v104h306v-104z" />
    <glyph glyph-name="uni2011" unicode="&#x2011;" horiz-adv-x="466" 
d="M386 241h-306v104h306v-104z" />
    <glyph glyph-name="figuredash" unicode="&#x2012;" horiz-adv-x="466" 
d="M386 241h-306v104h306v-104z" />
    <glyph glyph-name="endash" unicode="&#x2013;" horiz-adv-x="622" 
d="M562 241h-502v104h502v-104z" />
    <glyph glyph-name="emdash" unicode="&#x2014;" horiz-adv-x="1102" 
d="M1042 241h-982v104h982v-104z" />
    <glyph glyph-name="quoteleft" unicode="&#x2018;" horiz-adv-x="225" 
d="M103 700h90v-10l-31 -235h-129v10z" />
    <glyph glyph-name="quoteright" unicode="&#x2019;" horiz-adv-x="225" 
d="M122 455h-90v10l31 235h129v-10z" />
    <glyph glyph-name="quotesinglbase" unicode="&#x201a;" horiz-adv-x="225" 
d="M122 -138h-90v10l31 235h129v-10z" />
    <glyph glyph-name="quotedblleft" unicode="&#x201c;" horiz-adv-x="412" 
d="M103 700h90v-10l-31 -235h-129v10zM290 700h90v-10l-31 -235h-129v10z" />
    <glyph glyph-name="quotedblright" unicode="&#x201d;" horiz-adv-x="412" 
d="M122 455h-90v10l31 235h129v-10zM310 455h-90v10l31 235h129v-10z" />
    <glyph glyph-name="quotedblbase" unicode="&#x201e;" horiz-adv-x="412" 
d="M122 -138h-90v10l31 235h129v-10zM310 -138h-90v10l31 235h129v-10z" />
    <glyph glyph-name="dagger" unicode="&#x2020;" horiz-adv-x="477" 
d="M288 570h110v-94h-110v-140l-14 -165h-71l-14 165v140h-110v94h110v130h99v-130z" />
    <glyph glyph-name="daggerdbl" unicode="&#x2021;" horiz-adv-x="477" 
d="M398 476h-114l-10 -126l11 -126h113v-93h-110v-130h-99v130h-110v93h113l11 126l-10 126h-114v94h110v130h99v-130h110v-94z" />
    <glyph glyph-name="bullet" unicode="&#x2022;" horiz-adv-x="386" 
d="M193 156q-63 0 -98 37t-35 101q0 62 35 98.5t98 36.5q62 0 97.5 -37t35.5 -98q0 -63 -35.5 -100.5t-97.5 -37.5z" />
    <glyph glyph-name="ellipsis" unicode="&#x2026;" horiz-adv-x="807" 
d="M186 0h-132v130h132v-130zM470 0h-132v130h132v-130zM753 0h-132v130h132v-130z" />
    <glyph glyph-name="uni202F" unicode="&#x202f;" horiz-adv-x="195" 
 />
    <glyph glyph-name="perthousand" unicode="&#x2030;" horiz-adv-x="1213" 
d="M213 348q-74 0 -115 49.5t-41 132.5t41 132.5t115 49.5t114.5 -49.5t40.5 -132.5t-40.5 -132.5t-114.5 -49.5zM237 0h-101v10l474 690h99v-10zM213 427q70 0 70 103t-70 103q-71 0 -71 -103t71 -103zM637 355q74 0 115 -49.5t41 -132.5t-41 -132.5t-115 -49.5t-115 49.5
t-41 132.5t41 132.5t115 49.5zM1000 -9q-74 0 -115 49.5t-41 132.5t41 132.5t115 49.5t114.5 -49.5t40.5 -132.5t-40.5 -132.5t-114.5 -49.5zM567 173q0 -103 70 -103t70 103t-70 103t-70 -103zM1000 70q70 0 70 103t-70 103q-71 0 -71 -103t71 -103z" />
    <glyph glyph-name="guilsinglleft" unicode="&#x2039;" horiz-adv-x="351" 
d="M303 66h-106l-166 212v10l166 212h106v-10l-140 -207l140 -207v-10z" />
    <glyph glyph-name="guilsinglright" unicode="&#x203a;" horiz-adv-x="351" 
d="M153 66h-106v10l140 207l-140 207v10h106l166 -212v-10z" />
    <glyph glyph-name="fraction" unicode="&#x2044;" horiz-adv-x="544" 
d="M99 -100h-109v10l457 890h107v-10z" />
    <glyph glyph-name="uni205F" unicode="&#x205f;" horiz-adv-x="244" 
 />
    <glyph glyph-name="Euro" unicode="&#x20ac;" horiz-adv-x="756" 
d="M416 98q74 0 117.5 37t55.5 105h119q-12 -111 -89 -180t-203 -69q-120 0 -199.5 62t-107.5 173h-62v84h48q-1 9 -1 39q0 25 1 32h-48v84h60q27 115 107 179.5t202 64.5q126 0 205 -71q78 -70 87 -185h-120q-6 68 -51 108t-121 40q-141 0 -186 -136h245l-20 -84h-240
q-1 -7 -1 -32q0 -5 2 -39h224l-20 -84h-187q45 -128 183 -128z" />
    <glyph glyph-name="uni2116" unicode="&#x2116;" horiz-adv-x="1158" 
d="M898 332q-83 0 -128.5 51t-45.5 137t46 137.5t128 51.5t127.5 -51.5t45.5 -137.5q0 -85 -45.5 -136.5t-127.5 -51.5zM202 0h-115v700h134l315 -514h4v514h116v-700h-135l-315 511h-4v-511zM897 415q82 0 82 106q0 105 -82 105q-39 0 -60 -28t-21 -77q0 -51 21 -78.5
t60 -27.5zM1059 195h-315v88h315v-88z" />
    <glyph glyph-name="trademark" unicode="&#x2122;" horiz-adv-x="732" 
d="M202 373h-71v262h-98v65h267v-65h-98v-262zM416 373h-66v327h79l96 -162h3l95 162h77v-327h-66v220h-3l-100 -165h-10l-102 166h-3v-221z" />
    <glyph glyph-name="minus" unicode="&#x2212;" horiz-adv-x="485" 
d="M480 264h-475v98h475v-98z" />
    <glyph glyph-name="notequal" unicode="&#x2260;" horiz-adv-x="485" 
d="M480 458v-98h-161l-64 -105h225v-98h-285l-39 -65h-85v10l33 55h-99v98h159l64 105h-223v98h282l42 69h85v-10l-36 -59h102z" />
    <glyph glyph-name="lessequal" unicode="&#x2264;" horiz-adv-x="521" 
d="M479 254v-107l-438 171v122l438 171v-107l-336 -123v-4zM479 0h-438v98h438v-98z" />
    <glyph glyph-name="greaterequal" unicode="&#x2265;" horiz-adv-x="521" 
d="M479 318l-438 -171v107l336 123v4l-336 123v107l438 -171v-122zM479 0h-438v98h438v-98z" />
    <glyph glyph-name="uni25FC" unicode="&#x25fc;" horiz-adv-x="515" 
d="M0 0v515h515v-515h-515z" />
    <glyph glyph-name="NULL" horiz-adv-x="0" 
 />
    <glyph glyph-name="CR" horiz-adv-x="333" 
 />
    <glyph glyph-name="i.loclTRK" horiz-adv-x="250" 
d="M192 603h-124v123h124v-123zM187 0h-114v516h114v-516z" />
    <glyph glyph-name="a.ss01" 
d="M255 -9q-102 0 -159 74q-57 75 -57 192q0 119 56 193q57 75 159 75q101 0 148 -71h4l13 62h101v-516h-101l-11 62h-4q-47 -71 -149 -71zM282 92q63 0 95.5 45t32.5 121t-32.5 121t-95.5 45q-64 0 -95.5 -44.5t-31.5 -121.5t31.5 -121.5t95.5 -44.5z" />
    <glyph glyph-name="aacute.ss01" 
d="M320 583h-90v10l72 140h134v-10zM255 -9q-102 0 -159 74q-57 75 -57 192q0 119 56 193q57 75 159 75q101 0 148 -71h4l13 62h101v-516h-101l-11 62h-4q-47 -71 -149 -71zM282 92q63 0 95.5 45t32.5 121t-32.5 121t-95.5 45q-64 0 -95.5 -44.5t-31.5 -121.5t31.5 -121.5
t95.5 -44.5z" />
    <glyph glyph-name="abreve.ss01" 
d="M289 585q-72 0 -112 39t-40 106h88q3 -59 64 -59q62 0 65 59h88q0 -68 -40 -106.5t-113 -38.5zM255 -9q-102 0 -159 74q-57 75 -57 192q0 119 56 193q57 75 159 75q101 0 148 -71h4l13 62h101v-516h-101l-11 62h-4q-47 -71 -149 -71zM282 92q63 0 95.5 45t32.5 121
t-32.5 121t-95.5 45q-64 0 -95.5 -44.5t-31.5 -121.5t31.5 -121.5t95.5 -44.5z" />
    <glyph glyph-name="uni01CE.ss01" 
d="M357 585h-134l-98 136v10h98l64 -69h4l66 69h98v-10zM255 -9q-102 0 -159 74q-57 75 -57 192q0 119 56 193q57 75 159 75q101 0 148 -71h4l13 62h101v-516h-101l-11 62h-4q-47 -71 -149 -71zM282 92q63 0 95.5 45t32.5 121t-32.5 121t-95.5 45q-64 0 -95.5 -44.5
t-31.5 -121.5t31.5 -121.5t95.5 -44.5z" />
    <glyph glyph-name="acircumflex.ss01" 
d="M225 585h-98v10l98 136h134l98 -136v-10h-98l-65 69h-4zM255 -9q-102 0 -159 74q-57 75 -57 192q0 119 56 193q57 75 159 75q101 0 148 -71h4l13 62h101v-516h-101l-11 62h-4q-47 -71 -149 -71zM282 92q63 0 95.5 45t32.5 121t-32.5 121t-95.5 45q-64 0 -95.5 -44.5
t-31.5 -121.5t31.5 -121.5t95.5 -44.5z" />
    <glyph glyph-name="adieresis.ss01" 
d="M257 610h-114v114h114v-114zM442 610h-114v114h114v-114zM255 -9q-102 0 -159 74q-57 75 -57 192q0 119 56 193q57 75 159 75q101 0 148 -71h4l13 62h101v-516h-101l-11 62h-4q-47 -71 -149 -71zM282 92q63 0 95.5 45t32.5 121t-32.5 121t-95.5 45q-64 0 -95.5 -44.5
t-31.5 -121.5t31.5 -121.5t95.5 -44.5z" />
    <glyph glyph-name="agrave.ss01" 
d="M358 583h-90l-116 140v10h134l72 -140v-10zM255 -9q-102 0 -159 74q-57 75 -57 192q0 119 56 193q57 75 159 75q101 0 148 -71h4l13 62h101v-516h-101l-11 62h-4q-47 -71 -149 -71zM282 92q63 0 95.5 45t32.5 121t-32.5 121t-95.5 45q-64 0 -95.5 -44.5t-31.5 -121.5
t31.5 -121.5t95.5 -44.5z" />
    <glyph glyph-name="amacron.ss01" 
d="M431 613h-281v94h281v-94zM255 -9q-102 0 -159 74q-57 75 -57 192q0 119 56 193q57 75 159 75q101 0 148 -71h4l13 62h101v-516h-101l-11 62h-4q-47 -71 -149 -71zM282 92q63 0 95.5 45t32.5 121t-32.5 121t-95.5 45q-64 0 -95.5 -44.5t-31.5 -121.5t31.5 -121.5
t95.5 -44.5z" />
    <glyph glyph-name="aogonek.ss01" 
d="M520 516v-516q-85 -37 -85 -96q0 -21 14.5 -33t36.5 -12h34v-80h-59q-52 0 -87.5 28t-35.5 75q0 76 80 123l-10 57h-4q-47 -71 -149 -71t-159 74q-57 75 -57 192q0 119 56 193q57 75 159 75q101 0 148 -71h4l13 62h101zM282 92q63 0 95.5 45t32.5 121t-32.5 121t-95.5 45
q-64 0 -95.5 -44.5t-31.5 -121.5t31.5 -121.5t95.5 -44.5z" />
    <glyph glyph-name="aring.ss01" 
d="M288 570q-49 0 -81 31t-32 80t32 80.5t81 31.5q51 0 83 -31t32 -81q0 -49 -32 -80t-83 -31zM287 636q30 -3 42 21t-0.5 48t-41.5 22q-28 2 -39.5 -22t0 -48t39.5 -21zM255 -9q-102 0 -159 74q-57 75 -57 192q0 119 56 193q57 75 159 75q101 0 148 -71h4l13 62h101v-516
h-101l-11 62h-4q-47 -71 -149 -71zM282 92q63 0 95.5 45t32.5 121t-32.5 121t-95.5 45q-64 0 -95.5 -44.5t-31.5 -121.5t31.5 -121.5t95.5 -44.5z" />
    <glyph glyph-name="atilde.ss01" 
d="M339 592q-32 0 -67 20l-14 9q-23 14 -39 14q-14 0 -23.5 -11t-9.5 -30h-73v15q0 52 27.5 81.5t74.5 29.5q33 0 68 -20l15 -9q23 -13 38 -13q32 0 32 40h72v-15q0 -54 -26.5 -82.5t-74.5 -28.5zM255 -9q-102 0 -159 74q-57 75 -57 192q0 119 56 193q57 75 159 75
q101 0 148 -71h4l13 62h101v-516h-101l-11 62h-4q-47 -71 -149 -71zM282 92q63 0 95.5 45t32.5 121t-32.5 121t-95.5 45q-64 0 -95.5 -44.5t-31.5 -121.5t31.5 -121.5t95.5 -44.5z" />
    <glyph glyph-name="caron.Slovak" horiz-adv-x="189" 
d="M112 530h-76v170h118v-10z" />
    </font>
</defs>
</svg>
