<?xml version="1.0" standalone="no"?>
<!DOCTYPE svg PUBLIC "-//W3C//DTD SVG 1.1//EN" "http://www.w3.org/Graphics/SVG/1.1/DTD/svg11.dtd" >
<svg xmlns="http://www.w3.org/2000/svg" xmlns:xlink="http://www.w3.org/1999/xlink" version="1.1">
<metadata>
Created by FontForge 20190801 at Tue May 15 20:49:11 2018
 By www-data
Copyright (c) 2018 by atipo. All rights reserved.
</metadata>
<defs>
<font id="BasierSquareSemiBold" horiz-adv-x="578" >
  <font-face 
    font-family="BasierSquareSemiBold"
    font-weight="600"
    font-stretch="normal"
    units-per-em="1000"
    panose-1="0 0 7 0 0 0 0 0 0 0"
    ascent="800"
    descent="-200"
    x-height="520"
    cap-height="700"
    bbox="-190 -245 1170 974"
    underline-thickness="50"
    underline-position="-250"
    unicode-range="U+0020-25FC"
  />
<missing-glyph horiz-adv-x="940" 
 />
    <glyph glyph-name=".notdef" horiz-adv-x="940" 
 />
    <glyph glyph-name=".null" horiz-adv-x="0" 
 />
    <glyph glyph-name="nonmarkingreturn" horiz-adv-x="333" 
 />
    <glyph glyph-name="space" unicode=" " horiz-adv-x="286" 
 />
    <glyph glyph-name="exclam" unicode="!" horiz-adv-x="258" 
d="M176 222h-97l-21 382v96h144v-96zM203 0h-148v143h148v-143z" />
    <glyph glyph-name="quotedbl" unicode="&#x22;" horiz-adv-x="430" 
d="M163 426h-90l-23 154v120h136v-120zM357 426h-90l-23 154v120h136v-120z" />
    <glyph glyph-name="numbersign" unicode="#" horiz-adv-x="699" 
d="M649 524v-116h-118l-20 -121h88v-116h-108l-29 -171h-122l29 171h-105l-29 -171h-122l29 171h-92v116h112l20 121h-82v116h102l30 176h122l-30 -176h105l30 176h122l-30 -176h98zM284 287h105l20 121h-105z" />
    <glyph glyph-name="dollar" unicode="$" horiz-adv-x="632" 
d="M598 202q0 -92 -60 -146t-177 -63v-83h-89v83q-113 10 -175.5 72.5t-67.5 165.5h139q8 -98 104 -114v187l-13 3q-104 22 -155.5 70t-51.5 134q0 80 59 133t161 63v83h89v-84q100 -10 162 -71q62 -60 63 -148h-139q-5 76 -86 94v-163l17 -4q109 -23 164.5 -73.5
t55.5 -138.5zM193 511q0 -55 79 -74v146q-79 -14 -79 -72zM361 285v-169q96 14 96 83q0 35 -22.5 55t-73.5 31z" />
    <glyph glyph-name="percent" unicode="%" horiz-adv-x="847" 
d="M328 398q-42 -50 -118 -50q-75 0 -119 50q-42 50 -42 132t42 132q44 50 119 50q76 0 118 -50q43 -49 43 -132t-43 -132zM241 0h-114v10l474 690h112v-10zM143 530q0 -94 67 -94t67 94t-67 94t-67 -94zM755 41q-42 -50 -118 -50q-75 0 -119 50q-42 49 -42 132t42 132
q44 50 119 50q76 0 118 -50q43 -49 43 -132t-43 -132zM570 173q0 -94 67 -94t67 94t-67 94t-67 -94z" />
    <glyph glyph-name="ampersand" unicode="&#x26;" horiz-adv-x="731" 
d="M551 398h144v-10l-158 -214l151 -164v-10h-161l-66 73q-76 -82 -194 -82q-91 0 -154 54q-62 54 -62 148q0 104 124 180l10 6q-74 83 -74 157t54 123q55 50 140 50h2q92 0 145 -49q54 -48 54 -121q0 -58 -28 -95q-30 -38 -91 -74l-19 -12l86 -93zM288 445l2 -2l22 14
q33 19 47 36t14 40q0 30 -17 46.5t-50 16.5h-2q-29 -1 -46 -17.5t-17 -43.5q0 -43 47 -90zM279 112q55 0 100 52l-117 130l-12 -7q-62 -39 -61 -92q0 -36 24.5 -59.5t65.5 -23.5z" />
    <glyph glyph-name="quotesingle" unicode="'" horiz-adv-x="236" 
d="M163 426h-90l-23 154v120h136v-120z" />
    <glyph glyph-name="parenleft" unicode="(" horiz-adv-x="365" 
d="M206 764h105v-10q-69 -90 -111 -208t-42 -250t42 -250t111 -208v-10h-105q-76 85 -125 206q-49 120 -49 262q0 138 47 258.5t127 209.5z" />
    <glyph glyph-name="parenright" unicode=")" horiz-adv-x="365" 
d="M54 764h105q80 -89 127 -209.5t47 -258.5q0 -139 -50 -262t-124 -206h-105v10q69 90 111 208t42 250t-42 250t-111 208v10z" />
    <glyph glyph-name="asterisk" unicode="*" horiz-adv-x="486" 
d="M299 353h-105l16 125l-4 2l-99 -73l-48 93l119 34v4l-119 35l48 93l98 -71l4 3l-15 122h105l-15 -122l4 -3l98 71l48 -93l-119 -35v-4l119 -34l-48 -93l-98 73l-4 -2z" />
    <glyph glyph-name="plus" unicode="+" horiz-adv-x="490" 
d="M309 63h-123v193h-181v114h181v193h123v-193h176v-114h-176v-193z" />
    <glyph glyph-name="comma" unicode="," horiz-adv-x="238" 
d="M124 -141h-103v10l31 241h149v-10z" />
    <glyph glyph-name="hyphen" unicode="-" horiz-adv-x="466" 
d="M386 233h-306v120h306v-120z" />
    <glyph glyph-name="period" unicode="." horiz-adv-x="242" 
d="M195 0h-148v143h148v-143z" />
    <glyph glyph-name="slash" unicode="/" horiz-adv-x="438" 
d="M141 -133h-126v10l281 860h127v-10z" />
    <glyph glyph-name="zero" unicode="0" horiz-adv-x="628" 
d="M49 352q0 164 65 262t200 98t200 -98t65 -262q0 -166 -65 -264q-64 -97 -200 -97t-200 97q-65 98 -65 264zM442 352q0 123 -30 182t-98 59t-98 -59t-30 -182q0 -124 30 -183t98 -59t98 59t30 183z" />
    <glyph glyph-name="one" unicode="1" horiz-adv-x="425" 
d="M351 0h-135v562h-4l-161 -122h-10v130l174 130h136v-700z" />
    <glyph glyph-name="two" unicode="2" horiz-adv-x="569" 
d="M525 0h-479v109l231 236q57 57 78 90q22 32 22 71t-25.5 63t-70.5 24q-49 0 -77.5 -28t-28.5 -82h-131q0 107 64 168t173 61q103 0 168 -57q65 -56 65 -145q0 -53 -27.5 -102t-93.5 -116l-167 -167v-4h299v-121z" />
    <glyph glyph-name="three" unicode="3" horiz-adv-x="603" 
d="M301 -9q-116 0 -188 57q-72 59 -72 164h134q1 -46 32 -74.5t93 -28.5q56 0 86 26.5t30 71.5q0 46 -32 72.5t-94 26.5h-61v117h59q51 0 78.5 23t27.5 65q0 37 -26.5 60t-73.5 23q-105 0 -107 -101h-135q1 101 67.5 160t177.5 59q99 0 167 -53t68 -135q0 -112 -97 -149v-4
q53 -16 86 -60.5t33 -102.5q0 -94 -65 -156q-64 -61 -188 -61z" />
    <glyph glyph-name="four" unicode="4" horiz-adv-x="588" 
d="M475 0h-135v134h-312v131l277 435h170v-447h87v-119h-87v-134zM160 257v-4h180v286h-4z" />
    <glyph glyph-name="five" unicode="5" horiz-adv-x="594" 
d="M296 -9q-110 0 -181 62q-70 61 -70 152h135q3 -42 33.5 -68.5t82.5 -26.5q57 0 87.5 34.5t30.5 90.5q0 51 -30.5 84.5t-87.5 33.5q-65 0 -109 -54h-131l27 401h420v-120h-309l-13 -159h4q49 43 132 43q103 0 168 -65t65 -164q0 -109 -67 -176q-68 -68 -187 -68z" />
    <glyph glyph-name="six" unicode="6" horiz-adv-x="615" 
d="M312 -9q-130 0 -196.5 91.5t-66.5 256.5q0 166 69.5 269.5t204.5 103.5q101 0 165 -56q63 -55 73 -139h-130q-7 34 -35.5 54.5t-72.5 20.5q-71 0 -109 -53.5t-38 -152.5h4q56 71 155 71q106 0 168 -68q63 -68 63 -158q0 -103 -69 -172q-68 -68 -185 -68zM312 110
q54 0 88 33t34 86q0 52 -33 84.5t-89 32.5q-54 0 -87.5 -32.5t-33.5 -84.5q0 -53 33 -86t88 -33z" />
    <glyph glyph-name="seven" unicode="7" horiz-adv-x="541" 
d="M228 0h-143v10l294 564v4h-355v122h493v-127z" />
    <glyph glyph-name="eight" unicode="8" horiz-adv-x="602" 
d="M447 373v-4q111 -47 111 -168q0 -99 -70 -154q-69 -54 -187 -56q-118 2 -187 56q-70 55 -70 154q0 121 111 168v4q-90 47 -90 154q0 84 65 134q64 51 171 51t171 -51q65 -50 65 -134q0 -107 -90 -154zM201 512q0 -40 27 -62.5t73 -23.5q46 1 73 23.5t27 62.5
q0 39 -27.5 61t-72.5 22t-72.5 -22t-27.5 -61zM301 108q57 1 88.5 27.5t31.5 74.5q0 45 -32 72t-88 28q-56 -1 -88 -28t-32 -72q0 -48 31.5 -74.5t88.5 -27.5z" />
    <glyph glyph-name="nine" unicode="9" horiz-adv-x="615" 
d="M292 -9q-103 0 -165 55t-73 140h130q7 -34 35.5 -54.5t72.5 -20.5q70 0 108 53.5t38 152.5h-4q-54 -71 -154 -71q-106 0 -169 67q-62 68 -62 159q0 103 68 171q69 69 186 69q130 0 196.5 -91.5t66.5 -256.5q0 -166 -69.5 -269.5t-204.5 -103.5zM303 357q54 0 87 32.5
t33 84.5q0 54 -32.5 86.5t-87.5 32.5q-54 0 -88 -33t-34 -86q0 -52 33 -84.5t89 -32.5z" />
    <glyph glyph-name="colon" unicode=":" horiz-adv-x="242" 
d="M195 328h-148v143h148v-143zM195 0h-148v143h148v-143z" />
    <glyph glyph-name="semicolon" unicode=";" horiz-adv-x="238" 
d="M195 328h-148v143h148v-143zM124 -141h-103v10l31 241h149v-10z" />
    <glyph glyph-name="less" unicode="&#x3c;" horiz-adv-x="520" 
d="M484 115v-127l-448 245v105l448 245v-127l-317 -168v-4z" />
    <glyph glyph-name="equal" unicode="=" horiz-adv-x="490" 
d="M485 354h-480v114h480v-114zM485 142h-480v115h480v-115z" />
    <glyph glyph-name="greater" unicode="&#x3e;" horiz-adv-x="520" 
d="M484 233l-448 -245v127l317 169v4l-317 168v127l448 -245v-105z" />
    <glyph glyph-name="question" unicode="?" horiz-adv-x="543" 
d="M322 221h-130v16q0 59 21 93t69 72l32 25q29 23 40.5 41t11.5 44q0 35 -23.5 57t-68.5 22q-99 0 -99 -98h-136q0 95 60 155q61 61 175 61q106 0 167 -54q63 -53 63 -136q0 -94 -76 -152l-42 -33q-38 -28 -51 -48q-13 -17 -13 -49v-16zM332 0h-148v143h148v-143z" />
    <glyph glyph-name="at" unicode="@" horiz-adv-x="894" 
d="M462 -100q-185 0 -302 105q-116 105 -116 299q0 178 123 291q123 114 304 114q165 0 272 -96t107 -255q0 -128 -50.5 -196t-142.5 -68q-41 0 -70.5 18.5t-36.5 46.5h-4q-44 -62 -127 -62q-74 0 -119 54.5t-45 142.5q0 89 46 145q47 57 123 57q34 0 65 -16.5t45 -43.5h4
l7 49h89l-9 -249q-1 -54 47 -54q41 0 63.5 47t22.5 129q0 117 -79 190q-77 73 -211 73q-145 0 -236 -94q-91 -92 -91 -229q0 -146 88 -228q89 -81 234 -81q121 0 205 35v-87q-81 -37 -206 -37zM438 188q46 0 70 30.5t24 85.5q0 49 -25 76t-63 27q-40 0 -64 -30.5t-24 -83.5
q0 -51 21.5 -78t60.5 -27z" />
    <glyph glyph-name="A" unicode="A" horiz-adv-x="696" 
d="M261 700h174l246 -690v-10h-151l-48 147h-274l-48 -147h-144v10zM343 560l-95 -292h194l-95 292h-4z" />
    <glyph glyph-name="B" unicode="B" horiz-adv-x="666" 
d="M409 0h-330v700h319q95 0 151.5 -49t56.5 -133q0 -100 -73 -143v-4q99 -46 99 -169q0 -95 -59.5 -148.5t-163.5 -53.5zM215 579v-158h161q45 0 68 21t23 60q0 77 -88 77h-164zM215 303v-181h173q51 0 77.5 24t26.5 67q0 40 -27 65t-77 25h-173z" />
    <glyph glyph-name="C" unicode="C" horiz-adv-x="709" 
d="M369 -9q-159 0 -244 99q-86 101 -86 259q0 159 86 260q85 100 244 100q129 0 211 -75t90 -189h-140q-6 63 -47.5 101t-113.5 38q-92 0 -141 -62t-49 -173q0 -110 49 -172t141 -62q69 0 109.5 35.5t52.5 97.5h139q-12 -111 -93 -185q-80 -72 -208 -72z" />
    <glyph glyph-name="D" unicode="D" horiz-adv-x="704" 
d="M318 0h-239v700h239q155 0 251 -97q96 -96 96 -253q0 -149 -95 -250q-94 -100 -252 -100zM208 577v-455h101q104 0 160 59t56 169q0 109 -56 168t-160 59h-101z" />
    <glyph glyph-name="E" unicode="E" horiz-adv-x="610" 
d="M564 0h-485v700h485v-123h-348v-155h317v-122h-317v-178h348v-122z" />
    <glyph glyph-name="F" unicode="F" horiz-adv-x="607" 
d="M216 0h-137v700h482v-123h-345v-173h313v-123h-313v-281z" />
    <glyph glyph-name="G" unicode="G" horiz-adv-x="716" 
d="M368 -9q-158 0 -244 99q-85 100 -85 259q0 162 85 260q85 100 244 100q130 0 210 -70q82 -71 92 -177h-140q-9 55 -50.5 88.5t-111.5 33.5q-92 0 -140.5 -62t-48.5 -173t48.5 -172.5t140.5 -61.5q73 0 116.5 38t52.5 100h-149v122h289v-73q0 -141 -85 -226t-224 -85z" />
    <glyph glyph-name="H" unicode="H" horiz-adv-x="735" 
d="M519 423v277h137v-700h-137v300h-303v-300h-137v700h137v-277h303z" />
    <glyph glyph-name="I" unicode="I" horiz-adv-x="295" 
d="M217 0h-138v700h138v-700z" />
    <glyph glyph-name="J" unicode="J" horiz-adv-x="543" 
d="M242 -9q-107 0 -167 61q-59 62 -59 155h134q2 -90 94 -90q46 0 69 25.5t23 71.5v486h138v-486q0 -101 -61 -162t-171 -61z" />
    <glyph glyph-name="K" unicode="K" horiz-adv-x="663" 
d="M642 690l-305 -325l316 -355v-10h-163l-274 311v-311h-137v700h137v-284l265 284h161v-10z" />
    <glyph glyph-name="L" unicode="L" horiz-adv-x="554" 
d="M539 0h-460v700h137v-577h323v-123z" />
    <glyph glyph-name="M" unicode="M" horiz-adv-x="880" 
d="M211 0h-132v700h152l208 -351h4l208 351h150v-700h-132v483h-4l-220 -366h-10l-220 369h-4v-486z" />
    <glyph glyph-name="N" unicode="N" horiz-adv-x="743" 
d="M214 0h-135v700h159l286 -486h4v486h136v-700h-160l-286 483h-4v-483z" />
    <glyph glyph-name="O" unicode="O" horiz-adv-x="740" 
d="M370 -9q-161 0 -246 100t-85 259q0 158 85 258q86 101 246 101q159 0 245 -101t86 -258q0 -158 -86 -259q-85 -100 -245 -100zM227 178q48 -62 143 -62t143 62q48 63 48 172q0 110 -48 171q-48 63 -143 63t-143 -63q-48 -61 -48 -171q0 -109 48 -172z" />
    <glyph glyph-name="P" unicode="P" horiz-adv-x="649" 
d="M216 0h-137v700h300q105 0 168 -64t63 -164q0 -103 -64 -167q-63 -65 -167 -65h-163v-240zM216 578v-215h138q116 0 116 109q0 51 -30.5 78.5t-85.5 27.5h-138z" />
    <glyph glyph-name="Q" unicode="Q" horiz-adv-x="740" 
d="M701 350q0 -179 -104 -277l95 -136v-10h-139l-58 84q-58 -20 -125 -20q-161 0 -246 100t-85 259q0 158 85 258q86 101 246 101q159 0 245 -101t86 -258zM370 116q21 0 49 5l-89 128v10h138l51 -73q42 61 42 164q0 110 -48 171q-48 63 -143 63t-143 -63q-48 -61 -48 -171
q0 -111 48.5 -172.5t142.5 -61.5z" />
    <glyph glyph-name="R" unicode="R" horiz-adv-x="670" 
d="M479 272l174 -262v-10h-158l-161 256h-118v-256h-137v700h307q107 0 170 -63q64 -63 64 -156q0 -75 -37.5 -130t-103.5 -79zM379 577h-163v-199h163q49 0 74.5 27.5t25.5 74.5q0 43 -26.5 70t-73.5 27z" />
    <glyph glyph-name="S" unicode="S" horiz-adv-x="632" 
d="M315 -9q-133 0 -207 63.5t-79 176.5h139q4 -57 42 -87.5t105 -30.5q142 0 142 86q0 35 -22.5 55t-73.5 31l-102 22q-104 22 -155.5 70t-51.5 134q0 89 71 143q71 55 193 55q117 0 193 -62q75 -61 77 -160h-139q-3 46 -37 72.5t-96 26.5q-59 0 -90 -20t-31 -55
q0 -56 90 -77l95 -20q109 -23 164.5 -73.5t55.5 -138.5q0 -100 -72 -155.5t-211 -55.5z" />
    <glyph glyph-name="T" unicode="T" horiz-adv-x="592" 
d="M365 0h-138v576h-206v124h550v-124h-206v-576z" />
    <glyph glyph-name="U" unicode="U" horiz-adv-x="714" 
d="M356 -9q-128 0 -208 72q-79 73 -79 205v432h137v-430q0 -156 150 -156q151 0 151 156v430h138v-432q0 -133 -80 -205q-79 -72 -209 -72z" />
    <glyph glyph-name="V" unicode="V" horiz-adv-x="694" 
d="M428 0h-160l-252 690v10h154l175 -533h4l173 533h156v-10z" />
    <glyph glyph-name="W" unicode="W" horiz-adv-x="937" 
d="M349 0h-170l-163 690v10h145l104 -506h4l124 506h150l126 -506h4l104 506h144v-10l-164 -690h-170l-116 490h-4z" />
    <glyph glyph-name="X" unicode="X" horiz-adv-x="682" 
d="M183 0h-167v10l225 340v4l-216 336v10h163l156 -255h4l155 255h160v-10l-211 -337v-4l213 -339v-10h-166l-156 254h-4z" />
    <glyph glyph-name="Y" unicode="Y" horiz-adv-x="684" 
d="M412 0h-138v282l-258 408v10h158l168 -281h4l164 281h158v-10l-256 -407v-283z" />
    <glyph glyph-name="Z" unicode="Z" horiz-adv-x="597" 
d="M564 0h-531v120l353 452v4h-344v124h516v-122l-352 -451v-4h358v-123z" />
    <glyph glyph-name="bracketleft" unicode="[" horiz-adv-x="339" 
d="M274 -172h-238v936h237v-104h-124v-729h125v-103z" />
    <glyph glyph-name="backslash" unicode="\" horiz-adv-x="438" 
d="M423 -133h-126l-282 860v10h127l281 -860v-10z" />
    <glyph glyph-name="bracketright" unicode="]" horiz-adv-x="339" 
d="M304 -172h-239v103h125v729h-124v104h238v-936z" />
    <glyph glyph-name="asciicircum" unicode="^" horiz-adv-x="588" 
d="M165 310h-126v10l197 380h117l196 -380v-10h-126l-127 259h-4z" />
    <glyph glyph-name="underscore" unicode="_" horiz-adv-x="562" 
d="M524 -134h-485v107h485v-107z" />
    <glyph glyph-name="grave" unicode="`" horiz-adv-x="279" 
d="M247 583h-100l-116 143v10h148l68 -143v-10z" />
    <glyph glyph-name="a" unicode="a" horiz-adv-x="543" 
d="M214 -9q-84 0 -133 45t-49 117q0 76 53.5 118.5t156.5 42.5h116v29q0 35 -23 55.5t-67 20.5q-40 0 -63.5 -18.5t-23.5 -48.5h-126q0 77 56 127q58 50 160 50t161.5 -51t59.5 -134v-344h-119l-10 54h-4q-48 -63 -145 -63zM246 97q50 0 81 27.5t31 68.5v28h-106
q-87 0 -87 -62q0 -28 21.5 -45t59.5 -17z" />
    <glyph glyph-name="b" unicode="b" horiz-adv-x="588" 
d="M343 -9q-94 0 -144 65h-4l-14 -56h-120v740h134v-276h4q50 65 144 65q99 0 156 -75t57 -194q0 -122 -58 -195q-57 -74 -155 -74zM305 109q58 0 86.5 40.5t28.5 110.5q0 71 -28.5 111t-86.5 40t-86.5 -40.5t-28.5 -110.5q0 -69 29 -110t86 -41z" />
    <glyph glyph-name="c" unicode="c" horiz-adv-x="549" 
d="M286 -9q-120 0 -187 73t-67 196q0 122 66 195q66 74 185 74q106 0 166.5 -56t66.5 -151h-135q-4 40 -30 64.5t-68 24.5q-114 0 -114 -151t114 -151q42 0 68 23.5t31 63.5h135q-6 -94 -66.5 -149.5t-164.5 -55.5z" />
    <glyph glyph-name="d" unicode="d" 
d="M246 -9q-98 0 -157 74q-57 73 -57 195q0 119 57 194t157 75q93 0 143 -65h4v276h134v-740h-120l-14 56h-4q-50 -65 -143 -65zM168 260q0 -70 29 -110.5t86 -40.5t86 40.5t29 110.5t-28.5 110.5t-86.5 40.5t-86.5 -40t-28.5 -111z" />
    <glyph glyph-name="e" unicode="e" horiz-adv-x="555" 
d="M283 -9q-117 0 -184 75q-67 76 -67 193t64 193q65 77 185 77q113 0 177 -72q65 -73 65 -182v-52h-354q1 -57 30 -89t84 -32q83 0 102 60h131q-10 -73 -74 -123q-62 -48 -159 -48zM170 312h216q-2 49 -29 77t-76 28q-53 0 -81 -28t-30 -77z" />
    <glyph glyph-name="f" unicode="f" horiz-adv-x="412" 
d="M248 0h-134v407h-91v113h91v44q0 86 56 136t143 50h64v-115h-50q-79 0 -79 -71v-44h124v-113h-124v-407z" />
    <glyph glyph-name="g" unicode="g" 
d="M279 -238q-103 0 -167 52q-64 51 -65 135h131q3 -32 30.5 -52t70.5 -20q55 0 84.5 27t29.5 72v80h-4q-50 -65 -143 -65q-100 0 -157 75t-57 193q0 121 57 195q58 75 157 75q93 0 143 -65h4l14 56h120v-546q0 -94 -69 -153q-70 -59 -179 -59zM195 150q29 -41 88 -41
q60 0 87 41q28 41 28 109t-28 109q-28 43 -87 43t-87 -43q-28 -41 -28 -109q0 -67 27 -109z" />
    <glyph glyph-name="h" unicode="h" horiz-adv-x="588" 
d="M195 0h-134v740h134v-279h4q51 68 147 68q87 0 138.5 -50.5t51.5 -137.5v-341h-134v303q0 104 -97 104q-49 0 -79.5 -33t-30.5 -87v-287z" />
    <glyph glyph-name="i" unicode="i" horiz-adv-x="247" 
d="M200 594h-144v140h144v-140zM195 0h-134v520h134v-520z" />
    <glyph glyph-name="j" unicode="j" horiz-adv-x="254" 
d="M207 594h-144v140h144v-140zM26 -238h-62v124h38q66 0 66 73v561h134v-589q0 -81 -47.5 -125t-128.5 -44z" />
    <glyph glyph-name="k" unicode="k" horiz-adv-x="548" 
d="M525 510l-210 -231l220 -269v-10h-161l-186 235v-235h-127v740h127v-422l181 202h156v-10z" />
    <glyph glyph-name="l" unicode="l" horiz-adv-x="247" 
d="M195 0h-134v740h134v-740z" />
    <glyph glyph-name="m" unicode="m" horiz-adv-x="899" 
d="M659 529q86 0 137 -51t51 -137v-341h-134v303q0 104 -90 104q-47 0 -73 -32t-26 -87v-288h-133v303q0 104 -91 104q-48 0 -76.5 -32.5t-28.5 -86.5v-288h-134v520h120l10 -59h4q51 68 146 68q109 0 156 -77h3q53 77 159 77z" />
    <glyph glyph-name="n" unicode="n" horiz-adv-x="584" 
d="M195 0h-134v520h120l10 -59h4q51 68 148 68q86 0 137.5 -51t51.5 -137v-341h-134v303q0 104 -96 104q-48 0 -77.5 -32.5t-29.5 -86.5v-288z" />
    <glyph glyph-name="o" unicode="o" horiz-adv-x="569" 
d="M285 -9q-122 0 -188 74q-65 74 -65 194t66 195t187 75q120 0 186 -75t66 -195q0 -119 -66 -194q-65 -74 -186 -74zM401 259q0 152 -116 152t-116 -152q0 -150 116 -150t116 150z" />
    <glyph glyph-name="p" unicode="p" horiz-adv-x="588" 
d="M195 -229h-134v749h120l14 -56h4q50 65 144 65q97 0 155 -75q58 -73 58 -195q0 -118 -57 -193t-156 -75q-94 0 -144 65h-4v-285zM420 259q0 71 -28.5 111.5t-86.5 40.5q-59 0 -87 -43q-28 -41 -28 -109q0 -67 27 -109q29 -41 88 -41q58 0 86.5 40t28.5 110z" />
    <glyph glyph-name="q" unicode="q" 
d="M527 -229h-134v285h-4q-50 -65 -143 -65q-100 0 -157 75t-57 193q0 121 57 195q58 75 157 75q93 0 143 -65h4l14 56h120v-749zM195 150q29 -41 88 -41q60 0 87 41q28 41 28 109t-28 109q-28 43 -87 43t-87 -43q-28 -41 -28 -109q0 -67 27 -109z" />
    <glyph glyph-name="r" unicode="r" horiz-adv-x="389" 
d="M188 0h-127v520h113l10 -79h4q40 87 135 87h38v-124h-47q-60 0 -93 -39t-33 -110v-255z" />
    <glyph glyph-name="s" unicode="s" horiz-adv-x="511" 
d="M258 -9q-108 0 -166 49t-60 135h134q0 -32 24.5 -51.5t67.5 -19.5q41 0 63.5 13t22.5 35q0 38 -60 50l-84 16q-152 29 -152 158q0 67 56.5 110t150.5 43q96 0 154 -49q58 -48 58 -124h-132q0 30 -22 48t-60 18q-34 0 -54 -13t-20 -34q0 -36 53 -47l95 -17
q75 -15 113.5 -52t38.5 -106q0 -75 -62 -119q-61 -43 -159 -43z" />
    <glyph glyph-name="t" unicode="t" horiz-adv-x="417" 
d="M372 0h-98q-81 0 -122 41.5t-41 116.5v248h-85v114h90v137h129v-137h125v-114h-125v-219q0 -37 16 -53.5t51 -16.5h60v-117z" />
    <glyph glyph-name="u" unicode="u" horiz-adv-x="580" 
d="M248 -9q-86 0 -137.5 51t-51.5 137v341h134v-303q0 -104 96 -104q48 0 77.5 32.5t29.5 86.5v288h134v-520h-120l-10 59h-4q-51 -68 -148 -68z" />
    <glyph glyph-name="v" unicode="v" horiz-adv-x="541" 
d="M354 0h-165l-176 510v10h138l120 -388h4l117 388h136v-10z" />
    <glyph glyph-name="w" unicode="w" horiz-adv-x="809" 
d="M316 0h-170l-133 510v10h133l85 -370h4l84 370h172l84 -370h4l86 370h131v-10l-132 -510h-170l-86 369h-4z" />
    <glyph glyph-name="x" unicode="x" horiz-adv-x="541" 
d="M160 0h-146v10l165 251l-159 249v10h144l105 -175h4l105 175h144v-10l-160 -248l165 -252v-10h-146l-108 179h-4z" />
    <glyph glyph-name="y" unicode="y" horiz-adv-x="556" 
d="M13 510v10h138l120 -380h4l124 380h144v-10l-269 -739h-144v10l79 220l-19 1z" />
    <glyph glyph-name="z" unicode="z" horiz-adv-x="502" 
d="M461 0h-420v112l255 290v4h-254v114h417v-113l-254 -289v-4h256v-114z" />
    <glyph glyph-name="braceleft" unicode="{" horiz-adv-x="430" 
d="M159 298v-4q83 -12 83 -105v-173q0 -44 19 -64t60 -20h44v-104h-73q-75 0 -119 43t-44 117v164q0 46 -22.5 67t-70.5 23v108q48 2 70.5 23t22.5 67v164q0 74 44 117t119 43h73v-104h-44q-41 0 -60 -20t-19 -64v-173q0 -93 -83 -105z" />
    <glyph glyph-name="bar" unicode="|" horiz-adv-x="274" 
d="M195 -138h-116v898h116v-898z" />
    <glyph glyph-name="braceright" unicode="}" horiz-adv-x="430" 
d="M301 604v-164q0 -46 22.5 -67t70.5 -23v-108q-48 -2 -70.5 -23t-22.5 -67v-164q0 -74 -44 -117t-119 -43h-73v104h44q41 0 60 20t19 64v173q0 93 83 105v4q-83 12 -83 105v173q0 44 -19 64t-60 20h-44v104h73q75 0 119 -43t44 -117z" />
    <glyph glyph-name="asciitilde" unicode="~" horiz-adv-x="544" 
d="M371 203q-47 0 -97 27l-46 25q-28 15 -54 15q-57 0 -79 -57l-71 48q19 53 57 84.5t91 31.5q49 0 96 -26l46 -25q29 -16 57 -16q53 0 79 57l71 -48q-19 -53 -57.5 -84.5t-92.5 -31.5z" />
    <glyph glyph-name="uni00A0" unicode="&#xa0;" horiz-adv-x="286" 
 />
    <glyph glyph-name="exclamdown" unicode="&#xa1;" horiz-adv-x="258" 
d="M204 377h-148v143h148v-143zM202 -180h-144v96l21 382h97l26 -382v-96z" />
    <glyph glyph-name="cent" unicode="&#xa2;" horiz-adv-x="549" 
d="M382 286h135q-5 -83 -55.5 -137.5t-136.5 -65.5v-83h-89v85q-96 15 -150 85.5t-54 179.5q0 110 53.5 180.5t150.5 85.5v84h89v-84q86 -11 136 -66t55 -138h-135q-6 61 -56 81v-287q51 19 57 80zM169 350q0 -115 67 -142v284q-67 -28 -67 -142z" />
    <glyph glyph-name="sterling" unicode="&#xa3;" horiz-adv-x="608" 
d="M582 0h-548v117q33 0 52.5 21t19.5 59v86h-73v116h73v100q0 89 62 151t168 62t167 -63q61 -62 61 -153h-128q0 47 -26 76t-76 29q-47 0 -74 -28t-27 -74v-100h191v-116h-191v-90q0 -57 -33 -75v-4h382v-114z" />
    <glyph glyph-name="currency" unicode="&#xa4;" horiz-adv-x="568" 
d="M173 57l-70 -72l-74 74l69 72q-32 53 -32 115q0 66 33 118l-70 73l75 73l71 -73q53 31 112 31t109 -29l69 71l75 -73l-68 -70q37 -56 37 -121t-36 -119l67 -68l-75 -74l-67 69q-56 -30 -111 -30q-60 0 -114 33zM287 133q46 0 77.5 31.5t31.5 81.5q0 48 -31.5 80.5
t-77.5 32.5q-48 0 -80 -32t-32 -81q0 -50 32 -81.5t80 -31.5z" />
    <glyph glyph-name="yen" unicode="&#xa5;" horiz-adv-x="684" 
d="M510 700h158v-10l-179 -288h95v-103h-159l-10 -16v-59h169v-102h-169v-122h-138v122h-177v102h177v58l-11 17h-166v103h100l-184 288v10h168l161 -281h4z" />
    <glyph glyph-name="brokenbar" unicode="&#xa6;" horiz-adv-x="274" 
d="M195 402h-116v358h116v-358zM195 -138h-116v358h116v-358z" />
    <glyph glyph-name="section" unicode="&#xa7;" horiz-adv-x="608" 
d="M297 -245q-92 0 -146.5 52.5t-55.5 137.5h112q1 -39 24.5 -61.5t65.5 -22.5q38 0 60.5 19t22.5 49q0 42 -46 76l-175 128q-51 37 -73 73t-22 86q0 88 90 139q-41 47 -41 109q0 73 54 121t144 48q92 0 146.5 -52.5t54.5 -137.5h-111q-1 39 -24.5 61.5t-65.5 22.5
q-38 0 -60.5 -19t-22.5 -49q0 -42 46 -76l169 -123q54 -38 77.5 -76t23.5 -89q0 -85 -90 -138q41 -47 41 -109q0 -74 -54 -121q-53 -48 -144 -48zM220 219l158 -117q51 21 51 66q0 47 -44 79l-155 115q-52 -19 -52 -68q0 -45 42 -75z" />
    <glyph glyph-name="dieresis" unicode="&#xa8;" horiz-adv-x="431" 
d="M180 605h-122v122h122v-122zM373 605h-121v122h121v-122z" />
    <glyph glyph-name="copyright" unicode="&#xa9;" horiz-adv-x="820" 
d="M760 350q-2 -159 -98 -258q-98 -101 -252 -101t-252 101q-96 99 -98 258q2 159 98 258q98 101 252 101t252 -101q96 -99 98 -258zM672 350q-2 128 -71 200q-69 74 -191 74q-121 0 -192 -74q-68 -73 -70 -200q2 -127 70 -200q71 -74 192 -74q122 0 191 74q69 72 71 200z
M412 224q76 0 84 71h84q-6 -66 -50 -107t-117 -41q-87 0 -134.5 53t-47.5 147t47.5 147.5t133.5 53.5q75 0 119 -42.5t47 -107.5h-84q-6 72 -82 72q-96 0 -96 -123t96 -123z" />
    <glyph glyph-name="ordfeminine" unicode="&#xaa;" horiz-adv-x="367" 
d="M152 296q-54 0 -87 30.5t-33 76.5q0 49 35.5 77.5t103.5 28.5q38 0 74 -10v28q0 48 -58 48q-26 0 -41 -12t-15 -30h-84q0 51 38 83.5t105 32.5q66 0 105.5 -33.5t39.5 -87.5v-226h-80l-6 35h-3q-32 -41 -94 -41zM173 367q33 0 52.5 17t19.5 44v7q-28 11 -66 11
q-58 0 -58 -39q0 -40 52 -40z" />
    <glyph glyph-name="guillemotleft" unicode="&#xab;" horiz-adv-x="608" 
d="M318 66h-126l-166 212v10l166 212h126v-10l-140 -207l140 -207v-10zM569 66h-126l-166 212v10l166 212h126v-10l-140 -207l140 -207v-10z" />
    <glyph glyph-name="uni00AD" unicode="&#xad;" horiz-adv-x="466" 
d="M386 233h-306v120h306v-120z" />
    <glyph glyph-name="registered" unicode="&#xae;" horiz-adv-x="503" 
d="M414 342q-63 -65 -163 -65q-99 0 -164 65q-63 64 -63 162t63 162q65 65 164 65q100 0 163 -65q64 -64 64 -162t-64 -162zM251 343q73 0 115.5 43t42.5 118t-42.5 118t-115.5 43q-72 0 -114.5 -43t-42.5 -118t42.5 -118t114.5 -43zM224 397h-56v208h102q33 0 55 -20.5
t22 -50.5q0 -46 -35 -66l43 -65v-6h-60l-39 63h-32v-63zM224 555v-46h37q27 0 27 24q0 22 -27 22h-37z" />
    <glyph glyph-name="overscore" unicode="&#xaf;" horiz-adv-x="350" 
d="M319 610h-288v102h288v-102z" />
    <glyph glyph-name="degree" unicode="&#xb0;" horiz-adv-x="427" 
d="M340 416q-50 -50 -126 -50q-75 0 -127 50q-50 50 -50 124t50 124q52 50 127 50q76 0 126 -50t50 -124t-50 -124zM214 455q36 0 58.5 24t22.5 61q0 38 -22 61q-21 24 -59 24t-60 -24q-21 -24 -21 -61q0 -38 22 -61.5t59 -23.5z" />
    <glyph glyph-name="plusminus" unicode="&#xb1;" horiz-adv-x="490" 
d="M309 196h-123v145h-181v115h181v146h123v-146h176v-115h-176v-145zM485 24h-480v115h480v-115z" />
    <glyph glyph-name="uni00B2" unicode="&#xb2;" horiz-adv-x="409" 
d="M369 249h-329v80l156 141q41 37 54.5 57t13.5 44t-16.5 39.5t-45.5 15.5q-30 0 -48 -17.5t-18 -47.5h-97q0 68 45 109.5t118 41.5q71 0 115.5 -39t44.5 -99q0 -38 -18 -69.5t-64 -71.5l-106 -93v-3h195v-88z" />
    <glyph glyph-name="uni00B3" unicode="&#xb3;" horiz-adv-x="429" 
d="M217 239q-81 0 -129.5 40t-48.5 111h96q0 -28 20.5 -46.5t60.5 -18.5q36 0 55 15.5t19 42.5q0 57 -81 57h-43v86h42q69 0 69 51q0 21 -18 35.5t-47 14.5q-68 0 -70 -66h-95q1 70 46 110.5t121 40.5q68 0 115 -36q47 -35 47 -92q0 -70 -59 -94v-4q33 -11 53 -39t20 -64
q0 -65 -45.5 -104.5t-127.5 -39.5z" />
    <glyph glyph-name="acute" unicode="&#xb4;" horiz-adv-x="279" 
d="M131 583h-100v10l69 143h147v-10z" />
    <glyph glyph-name="paragraph" unicode="&#xb6;" horiz-adv-x="613" 
d="M331 -104h-111v457q-78 0 -133 55t-55 134q0 78 55 133t133 55h358v-98h-62v-736h-111v736h-74v-736z" />
    <glyph glyph-name="middot" unicode="&#xb7;" horiz-adv-x="242" 
d="M195 227h-148v143h148v-143z" />
    <glyph glyph-name="cedilla" unicode="&#xb8;" horiz-adv-x="329" 
d="M159 -225q-56 0 -92 27t-36 72h82q0 -14 12.5 -22.5t32.5 -8.5t33.5 8t13.5 22q0 31 -44 31h-32l-25 31l40 79h92l-36 -53q43 -2 70 -26.5t27 -62.5q0 -43 -37 -70t-101 -27z" />
    <glyph glyph-name="uni00B9" unicode="&#xb9;" horiz-adv-x="293" 
d="M254 248h-97v349h-4l-106 -80h-8v96l117 87h98v-452z" />
    <glyph glyph-name="ordmasculine" unicode="&#xba;" horiz-adv-x="398" 
d="M198 296q-78 0 -122 48.5t-44 128.5q0 79 44.5 127.5t121.5 48.5q78 0 122.5 -48.5t44.5 -127.5q0 -80 -44 -128.5t-123 -48.5zM198 376q74 0 74 97q0 96 -74 96q-73 0 -73 -96q0 -97 73 -97z" />
    <glyph glyph-name="guillemotright" unicode="&#xbb;" horiz-adv-x="608" 
d="M330 278l-166 -212h-126v10l140 207l-140 207v10h126l166 -212v-10zM582 278l-166 -212h-126v10l140 207l-140 207v10h126l166 -212v-10z" />
    <glyph glyph-name="onequarter" unicode="&#xbc;" horiz-adv-x="907" 
d="M254 248h-97v349h-4l-106 -80h-8v96l117 87h98v-452zM277 0h-108v10l434 690h106v-10zM814 0h-97v84h-206v95l174 273h129v-281h54v-87h-54v-84zM606 175v-4h111v171h-4z" />
    <glyph glyph-name="onehalf" unicode="&#xbd;" horiz-adv-x="946" 
d="M254 248h-97v349h-4l-106 -80h-8v96l117 87h98v-452zM277 0h-108v10l434 690h106v-10zM906 0h-329v79l156 141q40 36 53.5 56t13.5 46q0 24 -16 39t-45 15q-30 0 -48 -17t-18 -47h-97q0 68 45 109.5t118 41.5q71 0 115.5 -39t44.5 -99q0 -38 -18 -69.5t-64 -71.5
l-106 -94v-3h195v-87z" />
    <glyph glyph-name="threequarters" unicode="&#xbe;" horiz-adv-x="997" 
d="M217 239q-81 0 -129.5 40t-48.5 111h96q0 -28 20.5 -46.5t60.5 -18.5q36 0 55 15.5t19 42.5q0 57 -81 57h-43v86h42q69 0 69 51q0 21 -18 35.5t-47 14.5q-68 0 -70 -66h-95q1 70 46 110.5t121 40.5q68 0 115 -36q47 -35 47 -92q0 -70 -59 -94v-4q33 -11 53 -39t20 -64
q0 -65 -45.5 -104.5t-127.5 -39.5zM367 0h-108v10l434 690h106v-10zM904 0h-97v84h-206v95l174 273h129v-281h54v-87h-54v-84zM696 175v-4h111v171h-4z" />
    <glyph glyph-name="questiondown" unicode="&#xbf;" horiz-adv-x="543" 
d="M359 377h-148v143h148v-143zM269 -190q-105 0 -168 54q-62 54 -62 137q0 94 76 152l42 33q34 26 50 47q14 19 14 49v16h130v-16q0 -58 -21 -93q-20 -34 -69 -71l-32 -25q-29 -23 -40.5 -41t-11.5 -44q0 -36 23.5 -58t68.5 -22q99 0 99 99h136q0 -98 -61.5 -157.5
t-173.5 -59.5z" />
    <glyph glyph-name="Agrave" unicode="&#xc0;" horiz-adv-x="696" 
d="M422 773v-10h-100l-116 143v10h148zM261 700h174l246 -690v-10h-151l-48 147h-274l-48 -147h-144v10zM343 560l-95 -292h194l-95 292h-4z" />
    <glyph glyph-name="Aacute" unicode="&#xc1;" horiz-adv-x="696" 
d="M500 916v-10l-116 -143h-100v10l69 143h147zM261 700h174l246 -690v-10h-151l-48 147h-274l-48 -147h-144v10zM343 560l-95 -292h194l-95 292h-4z" />
    <glyph glyph-name="Acircumflex" unicode="&#xc2;" horiz-adv-x="696" 
d="M352 826h-4l-60 -61h-108v10l96 139h148l97 -139v-10h-109zM261 700h174l246 -690v-10h-151l-48 147h-274l-48 -147h-144v10zM343 560l-95 -292h194l-95 292h-4z" />
    <glyph glyph-name="Atilde" unicode="&#xc3;" horiz-adv-x="696" 
d="M279 808q-30 0 -30 -38h-83v15q0 56 28.5 88t76.5 32q28 0 70 -20l15 -8q25 -14 37 -14q28 0 28 40h82v-15q0 -120 -104 -120q-36 0 -68 19l-15 8q-23 13 -37 13zM261 700h174l246 -690v-10h-151l-48 147h-274l-48 -147h-144v10zM343 560l-95 -292h194l-95 292h-4z" />
    <glyph glyph-name="Adieresis" unicode="&#xc4;" horiz-adv-x="696" 
d="M192 907h122v-122h-122v122zM386 907h121v-122h-121v122zM261 700h174l246 -690v-10h-151l-48 147h-274l-48 -147h-144v10zM343 560l-95 -292h194l-95 292h-4z" />
    <glyph glyph-name="Aring" unicode="&#xc5;" horiz-adv-x="696" 
d="M347 749q-50 0 -83 31.5t-33 80.5t33 81t83 32q51 0 83.5 -31.5t32.5 -81.5q0 -49 -32.5 -80.5t-83.5 -31.5zM346 906q-27 2 -38.5 -21.5t0 -46.5t38.5 -21q28 -2 40 21t0 46.5t-40 21.5zM261 700h174l246 -690v-10h-151l-48 147h-274l-48 -147h-144v10zM343 560
l-95 -292h194l-95 292h-4z" />
    <glyph glyph-name="AE" unicode="&#xc6;" horiz-adv-x="914" 
d="M160 0h-144v10l245 690h608v-123h-391l56 -155h304v-122h-261l64 -178h228v-122h-339l-48 147h-274zM343 560l-96 -292h196l-96 292h-4z" />
    <glyph glyph-name="Ccedilla" unicode="&#xc7;" horiz-adv-x="709" 
d="M369 115q69 0 109.5 35.5t52.5 97.5h139q-11 -104 -83 -175q-70 -70 -185 -81l-21 -31q43 -2 70 -26.5t27 -62.5q0 -43 -37 -70t-101 -27q-56 0 -92 27t-36 72h82q0 -14 12.5 -22.5t32.5 -8.5t33.5 8t13.5 22q0 31 -44 31h-32l-25 31l30 59q-133 18 -205 114
q-71 98 -71 241q0 159 86 260q85 100 244 100q129 0 211 -75t90 -189h-140q-6 63 -47.5 101t-113.5 38q-92 0 -141 -62t-49 -173q0 -110 49 -172t141 -62z" />
    <glyph glyph-name="Egrave" unicode="&#xc8;" horiz-adv-x="610" 
d="M408 763h-100l-116 143v10h148l68 -143v-10zM564 0h-485v700h485v-123h-348v-155h317v-122h-317v-178h348v-122z" />
    <glyph glyph-name="Eacute" unicode="&#xc9;" horiz-adv-x="610" 
d="M370 763h-100v10l69 143h147v-10zM564 0h-485v700h485v-123h-348v-155h317v-122h-317v-178h348v-122z" />
    <glyph glyph-name="Ecircumflex" unicode="&#xca;" horiz-adv-x="610" 
d="M274 765h-108v10l96 139h148l97 -139v-10h-109l-60 61h-4zM564 0h-485v700h485v-123h-348v-155h317v-122h-317v-178h348v-122z" />
    <glyph glyph-name="Edieresis" unicode="&#xcb;" horiz-adv-x="610" 
d="M300 785h-122v122h122v-122zM493 785h-121v122h121v-122zM564 0h-485v700h485v-123h-348v-155h317v-122h-317v-178h348v-122z" />
    <glyph glyph-name="Igrave" unicode="&#xcc;" horiz-adv-x="295" 
d="M224 763h-100l-116 143v10h148l68 -143v-10zM217 0h-138v700h138v-700z" />
    <glyph glyph-name="Iacute" unicode="&#xcd;" horiz-adv-x="295" 
d="M186 763h-100v10l69 143h147v-10zM217 0h-138v700h138v-700z" />
    <glyph glyph-name="Icircumflex" unicode="&#xce;" horiz-adv-x="295" 
d="M90 765h-108v10l96 139h148l97 -139v-10h-109l-60 61h-4zM217 0h-138v700h138v-700z" />
    <glyph glyph-name="Idieresis" unicode="&#xcf;" horiz-adv-x="295" 
d="M116 785h-122v122h122v-122zM309 785h-121v122h121v-122zM217 0h-138v700h138v-700z" />
    <glyph glyph-name="Eth" unicode="&#xd0;" horiz-adv-x="748" 
d="M123 700h239q155 0 251 -97q96 -96 96 -253q0 -149 -95 -250q-94 -100 -252 -100h-239v304h-72v117h72v279zM252 122h101q104 0 160 59t56 169q0 109 -56 168t-160 59h-101v-156h158v-117h-158v-182z" />
    <glyph glyph-name="Ntilde" unicode="&#xd1;" horiz-adv-x="743" 
d="M446 768q-36 0 -68 19l-15 8q-23 13 -37 13q-30 0 -30 -38h-83v15q0 56 28.5 88t76.5 32q28 0 70 -20l15 -8q25 -14 37 -14q28 0 28 40h82v-15q0 -120 -104 -120zM214 0h-135v700h159l286 -486h4v486h136v-700h-160l-286 483h-4v-483z" />
    <glyph glyph-name="Ograve" unicode="&#xd2;" horiz-adv-x="740" 
d="M446 763h-100l-116 143v10h148l68 -143v-10zM370 -9q-161 0 -246 100t-85 259q0 158 85 258q86 101 246 101q159 0 245 -101t86 -258q0 -158 -86 -259q-85 -100 -245 -100zM227 178q48 -62 143 -62t143 62q48 63 48 172q0 110 -48 171q-48 63 -143 63t-143 -63
q-48 -61 -48 -171q0 -109 48 -172z" />
    <glyph glyph-name="Oacute" unicode="&#xd3;" horiz-adv-x="740" 
d="M408 763h-100v10l69 143h147v-10zM370 -9q-161 0 -246 100t-85 259q0 158 85 258q86 101 246 101q159 0 245 -101t86 -258q0 -158 -86 -259q-85 -100 -245 -100zM227 178q48 -62 143 -62t143 62q48 63 48 172q0 110 -48 171q-48 63 -143 63t-143 -63q-48 -61 -48 -171
q0 -109 48 -172z" />
    <glyph glyph-name="Ocircumflex" unicode="&#xd4;" horiz-adv-x="740" 
d="M312 765h-108v10l96 139h148l97 -139v-10h-109l-60 61h-4zM370 -9q-161 0 -246 100t-85 259q0 158 85 258q86 101 246 101q159 0 245 -101t86 -258q0 -158 -86 -259q-85 -100 -245 -100zM227 178q48 -62 143 -62t143 62q48 63 48 172q0 110 -48 171q-48 63 -143 63
t-143 -63q-48 -61 -48 -171q0 -109 48 -172z" />
    <glyph glyph-name="Otilde" unicode="&#xd5;" horiz-adv-x="740" 
d="M423 768q-36 0 -68 19l-15 8q-23 13 -37 13q-30 0 -30 -38h-83v15q0 56 28.5 88t76.5 32q28 0 70 -20l15 -8q25 -14 37 -14q28 0 28 40h82v-15q0 -120 -104 -120zM370 -9q-161 0 -246 100t-85 259q0 158 85 258q86 101 246 101q159 0 245 -101t86 -258q0 -158 -86 -259
q-85 -100 -245 -100zM227 178q48 -62 143 -62t143 62q48 63 48 172q0 110 -48 171q-48 63 -143 63t-143 -63q-48 -61 -48 -171q0 -109 48 -172z" />
    <glyph glyph-name="Odieresis" unicode="&#xd6;" horiz-adv-x="740" 
d="M338 785h-122v122h122v-122zM531 785h-121v122h121v-122zM370 -9q-161 0 -246 100t-85 259q0 158 85 258q86 101 246 101q159 0 245 -101t86 -258q0 -158 -86 -259q-85 -100 -245 -100zM227 178q48 -62 143 -62t143 62q48 63 48 172q0 110 -48 171q-48 63 -143 63
t-143 -63q-48 -61 -48 -171q0 -109 48 -172z" />
    <glyph glyph-name="multiply" unicode="&#xd7;" horiz-adv-x="451" 
d="M228 237l-140 -139l-82 82l140 138l-140 138l82 82l140 -138l139 138l82 -82l-139 -138l139 -138l-82 -82z" />
    <glyph glyph-name="Oslash" unicode="&#xd8;" horiz-adv-x="740" 
d="M586 738h126v-10l-91 -126q80 -98 80 -252q0 -158 -86 -259q-85 -100 -245 -100q-97 0 -165 37l-53 -73h-124v10l94 130q-83 95 -83 255q0 158 85 258q86 101 246 101q93 0 167 -38zM179 350q0 -82 27 -138l255 352q-42 20 -91 20q-94 0 -142.5 -61.5t-48.5 -172.5z
M561 350q0 83 -25 134l-254 -350q38 -18 88 -18q94 0 142.5 61.5t48.5 172.5z" />
    <glyph glyph-name="Ugrave" unicode="&#xd9;" horiz-adv-x="714" 
d="M431 763h-100l-116 143v10h148l68 -143v-10zM356 -9q-128 0 -208 72q-79 73 -79 205v432h137v-430q0 -156 150 -156q151 0 151 156v430h138v-432q0 -133 -80 -205q-79 -72 -209 -72z" />
    <glyph glyph-name="Uacute" unicode="&#xda;" horiz-adv-x="714" 
d="M393 763h-100v10l69 143h147v-10zM356 -9q-128 0 -208 72q-79 73 -79 205v432h137v-430q0 -156 150 -156q151 0 151 156v430h138v-432q0 -133 -80 -205q-79 -72 -209 -72z" />
    <glyph glyph-name="Ucircumflex" unicode="&#xdb;" horiz-adv-x="714" 
d="M297 765h-108v10l96 139h148l97 -139v-10h-109l-60 61h-4zM356 -9q-128 0 -208 72q-79 73 -79 205v432h137v-430q0 -156 150 -156q151 0 151 156v430h138v-432q0 -133 -80 -205q-79 -72 -209 -72z" />
    <glyph glyph-name="Udieresis" unicode="&#xdc;" horiz-adv-x="714" 
d="M323 785h-122v122h122v-122zM516 785h-121v122h121v-122zM356 -9q-128 0 -208 72q-79 73 -79 205v432h137v-430q0 -156 150 -156q151 0 151 156v430h138v-432q0 -133 -80 -205q-79 -72 -209 -72z" />
    <glyph glyph-name="Yacute" unicode="&#xdd;" horiz-adv-x="684" 
d="M386 763h-100v10l69 143h147v-10zM412 0h-138v282l-258 408v10h158l168 -281h4l164 281h158v-10l-256 -407v-283z" />
    <glyph glyph-name="Thorn" unicode="&#xde;" horiz-adv-x="635" 
d="M217 0h-138v700h138v-93h162q105 0 168 -64q63 -65 63 -164q0 -103 -64 -167q-63 -65 -167 -65h-162v-147zM217 485v-215h137q116 0 116 109q0 51 -30.5 78.5t-85.5 27.5h-137z" />
    <glyph glyph-name="germandbls" unicode="&#xdf;" horiz-adv-x="671" 
d="M442 -9q-96 0 -151.5 50t-57.5 135h127q0 -74 82 -74q32 0 50.5 12.5t18.5 34.5q0 20 -15.5 33.5t-52.5 25.5l-64 20q-67 22 -98.5 54.5t-31.5 85.5q0 46 25.5 79t61.5 45q88 32 88 72q0 34 -29 52t-82 18q-57 0 -87.5 -29.5t-30.5 -85.5v-519h-134v521q0 103 69 166
t183 63q111 0 174.5 -51t63.5 -134q0 -85 -63 -121q-16 -9 -49.5 -23t-49.5 -25.5t-16 -27.5q0 -17 11.5 -26t41.5 -19l81 -27q69 -22 100.5 -57.5t31.5 -90.5q0 -71 -55 -114q-53 -43 -142 -43z" />
    <glyph glyph-name="agrave" unicode="&#xe0;" horiz-adv-x="543" 
d="M351 583h-100l-116 143v10h148l68 -143v-10zM214 -9q-84 0 -133 45t-49 117q0 76 53.5 118.5t156.5 42.5h116v29q0 35 -23 55.5t-67 20.5q-40 0 -63.5 -18.5t-23.5 -48.5h-126q0 77 56 127q58 50 160 50t161.5 -51t59.5 -134v-344h-119l-10 54h-4q-48 -63 -145 -63z
M246 97q50 0 81 27.5t31 68.5v28h-106q-87 0 -87 -62q0 -28 21.5 -45t59.5 -17z" />
    <glyph glyph-name="aacute" unicode="&#xe1;" horiz-adv-x="543" 
d="M313 583h-100v10l69 143h147v-10zM214 -9q-84 0 -133 45t-49 117q0 76 53.5 118.5t156.5 42.5h116v29q0 35 -23 55.5t-67 20.5q-40 0 -63.5 -18.5t-23.5 -48.5h-126q0 77 56 127q58 50 160 50t161.5 -51t59.5 -134v-344h-119l-10 54h-4q-48 -63 -145 -63zM246 97
q50 0 81 27.5t31 68.5v28h-106q-87 0 -87 -62q0 -28 21.5 -45t59.5 -17z" />
    <glyph glyph-name="acircumflex" unicode="&#xe2;" horiz-adv-x="543" 
d="M217 585h-108v10l96 139h148l97 -139v-10h-109l-60 61h-4zM214 -9q-84 0 -133 45t-49 117q0 76 53.5 118.5t156.5 42.5h116v29q0 35 -23 55.5t-67 20.5q-40 0 -63.5 -18.5t-23.5 -48.5h-126q0 77 56 127q58 50 160 50t161.5 -51t59.5 -134v-344h-119l-10 54h-4
q-48 -63 -145 -63zM246 97q50 0 81 27.5t31 68.5v28h-106q-87 0 -87 -62q0 -28 21.5 -45t59.5 -17z" />
    <glyph glyph-name="atilde" unicode="&#xe3;" horiz-adv-x="543" 
d="M328 588q-36 0 -68 19l-15 8q-23 13 -37 13q-30 0 -30 -38h-83v15q0 56 28.5 88t76.5 32q28 0 70 -20l15 -8q26 -14 37 -14q28 0 28 40h82v-15q0 -120 -104 -120zM214 -9q-84 0 -133 45t-49 117q0 76 53.5 118.5t156.5 42.5h116v29q0 35 -23 55.5t-67 20.5
q-40 0 -63.5 -18.5t-23.5 -48.5h-126q0 77 56 127q58 50 160 50t161.5 -51t59.5 -134v-344h-119l-10 54h-4q-48 -63 -145 -63zM246 97q50 0 81 27.5t31 68.5v28h-106q-87 0 -87 -62q0 -28 21.5 -45t59.5 -17z" />
    <glyph glyph-name="adieresis" unicode="&#xe4;" horiz-adv-x="543" 
d="M243 605h-122v122h122v-122zM436 605h-121v122h121v-122zM214 -9q-84 0 -133 45t-49 117q0 76 53.5 118.5t156.5 42.5h116v29q0 35 -23 55.5t-67 20.5q-40 0 -63.5 -18.5t-23.5 -48.5h-126q0 77 56 127q58 50 160 50t161.5 -51t59.5 -134v-344h-119l-10 54h-4
q-48 -63 -145 -63zM246 97q50 0 81 27.5t31 68.5v28h-106q-87 0 -87 -62q0 -28 21.5 -45t59.5 -17z" />
    <glyph glyph-name="aring" unicode="&#xe5;" horiz-adv-x="543" 
d="M276 569q-50 0 -83 31.5t-33 80.5t33 81t83 32q51 0 83.5 -31.5t32.5 -81.5q0 -49 -32.5 -80.5t-83.5 -31.5zM275 637q28 -2 40 21t0 46.5t-40 21.5q-27 2 -38.5 -21.5t0 -46.5t38.5 -21zM214 -9q-84 0 -133 45t-49 117q0 76 53.5 118.5t156.5 42.5h116v29q0 35 -23 55.5
t-67 20.5q-40 0 -63.5 -18.5t-23.5 -48.5h-126q0 77 56 127q58 50 160 50t161.5 -51t59.5 -134v-344h-119l-10 54h-4q-48 -63 -145 -63zM246 97q50 0 81 27.5t31 68.5v28h-106q-87 0 -87 -62q0 -28 21.5 -45t59.5 -17z" />
    <glyph glyph-name="ae" unicode="&#xe6;" horiz-adv-x="878" 
d="M217 -9q-85 0 -135 45q-50 47 -50 117q0 76 53.5 118.5t156.5 42.5h116v29q0 35 -23 55.5t-67 20.5q-40 0 -63.5 -18.5t-23.5 -48.5h-126q0 77 56 127q58 50 160 50q107 0 168 -64h4q61 64 161 64q112 0 177 -72q65 -73 65 -182v-52h-354q1 -57 30 -89t84 -32
q82 0 102 60h131q-10 -73 -74 -123q-61 -48 -159 -48q-126 0 -191 92h-4q-59 -92 -194 -92zM493 312h216q-2 48 -29.5 76.5t-75.5 28.5q-52 0 -80.5 -28t-30.5 -77zM246 97q50 0 81 27.5t31 68.5v28h-106q-87 0 -87 -62q0 -28 21.5 -45t59.5 -17z" />
    <glyph glyph-name="ccedilla" unicode="&#xe7;" horiz-adv-x="549" 
d="M382 196h135q-5 -86 -56.5 -140t-142.5 -63l-21 -32q43 -2 70 -26.5t27 -62.5q0 -43 -37 -70t-101 -27q-56 0 -92 27t-36 72h82q0 -14 12.5 -22.5t32.5 -8.5t33.5 8t13.5 22q0 31 -44 31h-32l-25 31l31 60q-95 16 -147.5 86.5t-52.5 178.5q0 122 66 195q66 74 185 74
q106 0 166.5 -56t66.5 -151h-135q-4 40 -30 64.5t-68 24.5q-114 0 -114 -151t114 -151q42 0 68 23.5t31 63.5z" />
    <glyph glyph-name="egrave" unicode="&#xe8;" horiz-adv-x="555" 
d="M356 583h-100l-116 143v10h148l68 -143v-10zM283 -9q-117 0 -184 75q-67 76 -67 193t64 193q65 77 185 77q113 0 177 -72q65 -73 65 -182v-52h-354q1 -57 30 -89t84 -32q83 0 102 60h131q-10 -73 -74 -123q-62 -48 -159 -48zM170 312h216q-2 49 -29 77t-76 28
q-53 0 -81 -28t-30 -77z" />
    <glyph glyph-name="eacute" unicode="&#xe9;" horiz-adv-x="555" 
d="M318 583h-100v10l69 143h147v-10zM283 -9q-117 0 -184 75q-67 76 -67 193t64 193q65 77 185 77q113 0 177 -72q65 -73 65 -182v-52h-354q1 -57 30 -89t84 -32q83 0 102 60h131q-10 -73 -74 -123q-62 -48 -159 -48zM170 312h216q-2 49 -29 77t-76 28q-53 0 -81 -28
t-30 -77z" />
    <glyph glyph-name="ecircumflex" unicode="&#xea;" horiz-adv-x="555" 
d="M222 585h-108v10l96 139h148l97 -139v-10h-109l-60 61h-4zM283 -9q-117 0 -184 75q-67 76 -67 193t64 193q65 77 185 77q113 0 177 -72q65 -73 65 -182v-52h-354q1 -57 30 -89t84 -32q83 0 102 60h131q-10 -73 -74 -123q-62 -48 -159 -48zM170 312h216q-2 49 -29 77
t-76 28q-53 0 -81 -28t-30 -77z" />
    <glyph glyph-name="edieresis" unicode="&#xeb;" horiz-adv-x="555" 
d="M248 605h-122v122h122v-122zM441 605h-121v122h121v-122zM283 -9q-117 0 -184 75q-67 76 -67 193t64 193q65 77 185 77q113 0 177 -72q65 -73 65 -182v-52h-354q1 -57 30 -89t84 -32q83 0 102 60h131q-10 -73 -74 -123q-62 -48 -159 -48zM170 312h216q-2 49 -29 77
t-76 28q-53 0 -81 -28t-30 -77z" />
    <glyph glyph-name="igrave" unicode="&#xec;" horiz-adv-x="247" 
d="M203 583h-100l-116 143v10h148l68 -143v-10zM195 0h-134v520h134v-520z" />
    <glyph glyph-name="iacute" unicode="&#xed;" horiz-adv-x="247" 
d="M165 583h-100v10l69 143h147v-10zM195 0h-134v520h134v-520z" />
    <glyph glyph-name="icircumflex" unicode="&#xee;" horiz-adv-x="247" 
d="M69 585h-108v10l96 139h148l97 -139v-10h-109l-60 61h-4zM195 0h-134v520h134v-520z" />
    <glyph glyph-name="idieresis" unicode="&#xef;" horiz-adv-x="247" 
d="M95 605h-122v122h122v-122zM288 605h-121v122h121v-122zM195 0h-134v520h134v-520z" />
    <glyph glyph-name="eth" unicode="&#xf0;" horiz-adv-x="569" 
d="M537 261v-1v-1q0 -119 -66 -194q-65 -74 -186 -74q-122 0 -188 74q-65 74 -65 194t66 195t187 75q6 0 32 -2q-21 27 -60 65l-120 -53l-31 70l87 39q-56 44 -124 82v10h136q44 -24 79 -52l109 49l32 -70l-74 -33q178 -163 186 -361v-1v-10v-1zM401 259q0 152 -116 152
t-116 -152q0 -150 116 -150t116 150z" />
    <glyph glyph-name="ntilde" unicode="&#xf1;" horiz-adv-x="584" 
d="M380 588q-36 0 -68 19l-15 8q-23 13 -37 13q-30 0 -30 -38h-83v15q0 56 28.5 88t76.5 32q28 0 70 -20l15 -8q26 -14 37 -14q28 0 28 40h82v-15q0 -120 -104 -120zM195 0h-134v520h120l10 -59h4q51 68 148 68q86 0 137.5 -51t51.5 -137v-341h-134v303q0 104 -96 104
q-48 0 -77.5 -32.5t-29.5 -86.5v-288z" />
    <glyph glyph-name="ograve" unicode="&#xf2;" horiz-adv-x="569" 
d="M360 583h-100l-116 143v10h148l68 -143v-10zM285 -9q-122 0 -188 74q-65 74 -65 194t66 195t187 75q120 0 186 -75t66 -195q0 -119 -66 -194q-65 -74 -186 -74zM401 259q0 152 -116 152t-116 -152q0 -150 116 -150t116 150z" />
    <glyph glyph-name="oacute" unicode="&#xf3;" horiz-adv-x="569" 
d="M322 583h-100v10l69 143h147v-10zM285 -9q-122 0 -188 74q-65 74 -65 194t66 195t187 75q120 0 186 -75t66 -195q0 -119 -66 -194q-65 -74 -186 -74zM401 259q0 152 -116 152t-116 -152q0 -150 116 -150t116 150z" />
    <glyph glyph-name="ocircumflex" unicode="&#xf4;" horiz-adv-x="569" 
d="M226 585h-108v10l96 139h148l97 -139v-10h-109l-60 61h-4zM285 -9q-122 0 -188 74q-65 74 -65 194t66 195t187 75q120 0 186 -75t66 -195q0 -119 -66 -194q-65 -74 -186 -74zM401 259q0 152 -116 152t-116 -152q0 -150 116 -150t116 150z" />
    <glyph glyph-name="otilde" unicode="&#xf5;" horiz-adv-x="569" 
d="M337 588q-36 0 -68 19l-15 8q-23 13 -37 13q-30 0 -30 -38h-83v15q0 56 28.5 88t76.5 32q28 0 70 -20l15 -8q25 -14 37 -14q28 0 28 40h82v-15q0 -120 -104 -120zM285 -9q-122 0 -188 74q-65 74 -65 194t66 195t187 75q120 0 186 -75t66 -195q0 -119 -66 -194
q-65 -74 -186 -74zM401 259q0 152 -116 152t-116 -152q0 -150 116 -150t116 150z" />
    <glyph glyph-name="odieresis" unicode="&#xf6;" horiz-adv-x="569" 
d="M252 605h-122v122h122v-122zM445 605h-121v122h121v-122zM285 -9q-122 0 -188 74q-65 74 -65 194t66 195t187 75q120 0 186 -75t66 -195q0 -119 -66 -194q-65 -74 -186 -74zM401 259q0 152 -116 152t-116 -152q0 -150 116 -150t116 150z" />
    <glyph glyph-name="divide" unicode="&#xf7;" horiz-adv-x="490" 
d="M173 495q0 34 18.5 53.5t53.5 19.5t54 -19.5t19 -53.5t-19 -53.5t-54 -19.5t-53.5 19.5t-18.5 53.5zM485 258h-480v110h480v-110zM173 132q0 34 18.5 53t53.5 19t54 -19.5t19 -52.5q0 -34 -19 -54t-54 -20t-53.5 20t-18.5 54z" />
    <glyph glyph-name="oslash" unicode="&#xf8;" horiz-adv-x="569" 
d="M533 553l-63 -98q67 -73 67 -196q0 -119 -66 -194q-65 -74 -186 -74q-56 0 -102 17l-39 -60h-108v10l66 103q-70 70 -70 198q0 120 66 195t187 75q59 0 104 -19l34 53h110v-10zM169 259q0 -41 11 -76l142 223q-20 5 -37 5q-116 0 -116 -152zM285 109q116 0 116 150
q0 45 -10 74l-141 -220q13 -4 35 -4z" />
    <glyph glyph-name="ugrave" unicode="&#xf9;" horiz-adv-x="580" 
d="M367 583h-100l-116 143v10h148l68 -143v-10zM248 -9q-86 0 -137.5 51t-51.5 137v341h134v-303q0 -104 96 -104q48 0 77.5 32.5t29.5 86.5v288h134v-520h-120l-10 59h-4q-51 -68 -148 -68z" />
    <glyph glyph-name="uacute" unicode="&#xfa;" horiz-adv-x="580" 
d="M329 583h-100v10l69 143h147v-10zM248 -9q-86 0 -137.5 51t-51.5 137v341h134v-303q0 -104 96 -104q48 0 77.5 32.5t29.5 86.5v288h134v-520h-120l-10 59h-4q-51 -68 -148 -68z" />
    <glyph glyph-name="ucircumflex" unicode="&#xfb;" horiz-adv-x="580" 
d="M233 585h-108v10l96 139h148l97 -139v-10h-109l-60 61h-4zM248 -9q-86 0 -137.5 51t-51.5 137v341h134v-303q0 -104 96 -104q48 0 77.5 32.5t29.5 86.5v288h134v-520h-120l-10 59h-4q-51 -68 -148 -68z" />
    <glyph glyph-name="udieresis" unicode="&#xfc;" horiz-adv-x="580" 
d="M259 605h-122v122h122v-122zM452 605h-121v122h121v-122zM248 -9q-86 0 -137.5 51t-51.5 137v341h134v-303q0 -104 96 -104q48 0 77.5 32.5t29.5 86.5v288h134v-520h-120l-10 59h-4q-51 -68 -148 -68z" />
    <glyph glyph-name="yacute" unicode="&#xfd;" horiz-adv-x="556" 
d="M323 583h-100v10l69 143h147v-10zM13 510v10h138l120 -380h4l124 380h144v-10l-269 -739h-144v10l79 220l-19 1z" />
    <glyph glyph-name="thorn" unicode="&#xfe;" horiz-adv-x="600" 
d="M343 529q97 0 155 -75q58 -73 58 -195q0 -118 -57 -193t-156 -75q-94 0 -144 65h-4v-285h-134v969h134v-276h4q50 65 144 65zM420 259q0 71 -28.5 111.5t-86.5 40.5q-59 0 -87 -43q-28 -41 -28 -109q0 -67 27 -109q29 -41 88 -41q58 0 86.5 40t28.5 110z" />
    <glyph glyph-name="ydieresis" unicode="&#xff;" horiz-adv-x="556" 
d="M253 605h-122v122h122v-122zM446 605h-121v122h121v-122zM13 510v10h138l120 -380h4l124 380h144v-10l-269 -739h-144v10l79 220l-19 1z" />
    <glyph glyph-name="Amacron" unicode="&#x100;" horiz-adv-x="696" 
d="M205 892h288v-102h-288v102zM261 700h174l246 -690v-10h-151l-48 147h-274l-48 -147h-144v10zM343 560l-95 -292h194l-95 292h-4z" />
    <glyph glyph-name="amacron" unicode="&#x101;" horiz-adv-x="543" 
d="M422 610h-288v102h288v-102zM214 -9q-84 0 -133 45t-49 117q0 76 53.5 118.5t156.5 42.5h116v29q0 35 -23 55.5t-67 20.5q-40 0 -63.5 -18.5t-23.5 -48.5h-126q0 77 56 127q58 50 160 50t161.5 -51t59.5 -134v-344h-119l-10 54h-4q-48 -63 -145 -63zM246 97q50 0 81 27.5
t31 68.5v28h-106q-87 0 -87 -62q0 -28 21.5 -45t59.5 -17z" />
    <glyph glyph-name="Abreve" unicode="&#x102;" horiz-adv-x="696" 
d="M347 765q-75 0 -116 39t-41 108h98q3 -54 59 -54q55 0 58 54h98q0 -70 -40.5 -108.5t-115.5 -38.5zM261 700h174l246 -690v-10h-151l-48 147h-274l-48 -147h-144v10zM343 560l-95 -292h194l-95 292h-4z" />
    <glyph glyph-name="abreve" unicode="&#x103;" horiz-adv-x="543" 
d="M276 585q-75 0 -116 39t-41 108h98q3 -54 59 -54q55 0 58 54h98q0 -70 -40.5 -108.5t-115.5 -38.5zM214 -9q-84 0 -133 45t-49 117q0 76 53.5 118.5t156.5 42.5h116v29q0 35 -23 55.5t-67 20.5q-40 0 -63.5 -18.5t-23.5 -48.5h-126q0 77 56 127q58 50 160 50t161.5 -51
t59.5 -134v-344h-119l-10 54h-4q-48 -63 -145 -63zM246 97q50 0 81 27.5t31 68.5v28h-106q-87 0 -87 -62q0 -28 21.5 -45t59.5 -17z" />
    <glyph glyph-name="Aogonek" unicode="&#x104;" horiz-adv-x="696" 
d="M261 700h174l246 -690v-10h-2q-38 -16 -61.5 -41t-23.5 -54q0 -43 50 -43h35v-87h-64q-51 0 -91 28q-39 27 -39 77q0 74 73 120h-28l-48 147h-274l-48 -147h-144v10zM343 560l-95 -292h194l-95 292h-4z" />
    <glyph glyph-name="aogonek" unicode="&#x105;" horiz-adv-x="543" 
d="M492 344v-344h-1q-38 -16 -61.5 -41t-23.5 -54q0 -43 50 -43h35v-87h-64q-51 0 -91 28q-39 27 -39 77q0 76 76 122l-10 52h-4q-48 -63 -145 -63q-84 0 -133 45t-49 117q0 76 53.5 118.5t156.5 42.5h116v29q0 35 -23 55.5t-67 20.5q-40 0 -63.5 -18.5t-23.5 -48.5h-126
q0 77 56 127q58 50 160 50t161.5 -51t59.5 -134zM358 193v28h-106q-87 0 -87 -62q0 -28 21.5 -45t59.5 -17q50 0 81 27.5t31 68.5z" />
    <glyph glyph-name="Cacute" unicode="&#x106;" horiz-adv-x="709" 
d="M406 763h-100v10l69 143h147v-10zM369 -9q-159 0 -244 99q-86 101 -86 259q0 159 86 260q85 100 244 100q129 0 211 -75t90 -189h-140q-6 63 -47.5 101t-113.5 38q-92 0 -141 -62t-49 -173q0 -110 49 -172t141 -62q69 0 109.5 35.5t52.5 97.5h139q-12 -111 -93 -185
q-80 -72 -208 -72z" />
    <glyph glyph-name="cacute" unicode="&#x107;" horiz-adv-x="549" 
d="M325 583h-100v10l69 143h147v-10zM286 -9q-120 0 -187 73t-67 196q0 122 66 195q66 74 185 74q106 0 166.5 -56t66.5 -151h-135q-4 40 -30 64.5t-68 24.5q-114 0 -114 -151t114 -151q42 0 68 23.5t31 63.5h135q-6 -94 -66.5 -149.5t-164.5 -55.5z" />
    <glyph glyph-name="Ccircumflex" unicode="&#x108;" horiz-adv-x="709" 
d="M310 765h-108v10l96 139h148l97 -139v-10h-109l-60 61h-4zM369 -9q-159 0 -244 99q-86 101 -86 259q0 159 86 260q85 100 244 100q129 0 211 -75t90 -189h-140q-6 63 -47.5 101t-113.5 38q-92 0 -141 -62t-49 -173q0 -110 49 -172t141 -62q69 0 109.5 35.5t52.5 97.5h139
q-12 -111 -93 -185q-80 -72 -208 -72z" />
    <glyph glyph-name="ccircumflex" unicode="&#x109;" horiz-adv-x="549" 
d="M229 585h-108v10l96 139h148l97 -139v-10h-109l-60 61h-4zM286 -9q-120 0 -187 73t-67 196q0 122 66 195q66 74 185 74q106 0 166.5 -56t66.5 -151h-135q-4 40 -30 64.5t-68 24.5q-114 0 -114 -151t114 -151q42 0 68 23.5t31 63.5h135q-6 -94 -66.5 -149.5t-164.5 -55.5z
" />
    <glyph glyph-name="Cdotaccent" unicode="&#x10a;" horiz-adv-x="709" 
d="M442 774h-144v140h144v-140zM369 -9q-159 0 -244 99q-86 101 -86 259q0 159 86 260q85 100 244 100q129 0 211 -75t90 -189h-140q-6 63 -47.5 101t-113.5 38q-92 0 -141 -62t-49 -173q0 -110 49 -172t141 -62q69 0 109.5 35.5t52.5 97.5h139q-12 -111 -93 -185
q-80 -72 -208 -72z" />
    <glyph glyph-name="cdotaccent" unicode="&#x10b;" horiz-adv-x="549" 
d="M361 594h-144v140h144v-140zM286 -9q-120 0 -187 73t-67 196q0 122 66 195q66 74 185 74q106 0 166.5 -56t66.5 -151h-135q-4 40 -30 64.5t-68 24.5q-114 0 -114 -151t114 -151q42 0 68 23.5t31 63.5h135q-6 -94 -66.5 -149.5t-164.5 -55.5z" />
    <glyph glyph-name="Ccaron" unicode="&#x10c;" horiz-adv-x="709" 
d="M445 765h-148l-96 139v10h108l60 -61h4l60 61h109v-10zM369 -9q-159 0 -244 99q-86 101 -86 259q0 159 86 260q85 100 244 100q129 0 211 -75t90 -189h-140q-6 63 -47.5 101t-113.5 38q-92 0 -141 -62t-49 -173q0 -110 49 -172t141 -62q69 0 109.5 35.5t52.5 97.5h139
q-12 -111 -93 -185q-80 -72 -208 -72z" />
    <glyph glyph-name="ccaron" unicode="&#x10d;" horiz-adv-x="549" 
d="M364 585h-148l-96 139v10h108l60 -61h4l60 61h109v-10zM286 -9q-120 0 -187 73t-67 196q0 122 66 195q66 74 185 74q106 0 166.5 -56t66.5 -151h-135q-4 40 -30 64.5t-68 24.5q-114 0 -114 -151t114 -151q42 0 68 23.5t31 63.5h135q-6 -94 -66.5 -149.5t-164.5 -55.5z
" />
    <glyph glyph-name="Dcaron" unicode="&#x10e;" horiz-adv-x="704" 
d="M395 765h-148l-96 139v10h108l60 -61h4l60 61h109v-10zM318 0h-239v700h239q155 0 251 -97q96 -96 96 -253q0 -149 -95 -250q-94 -100 -252 -100zM208 577v-455h101q104 0 160 59t56 169q0 109 -56 168t-160 59h-101z" />
    <glyph glyph-name="dcaron" unicode="&#x10f;" 
d="M246 -9q-98 0 -157 74q-57 73 -57 195q0 119 57 194t157 75q93 0 143 -65h4v276h134v-740h-120l-14 56h-4q-50 -65 -143 -65zM660 570h-89v170h134v-10zM168 260q0 -70 29 -110.5t86 -40.5t86 40.5t29 110.5t-28.5 110.5t-86.5 40.5t-86.5 -40t-28.5 -111z" />
    <glyph glyph-name="Dcroat" unicode="&#x110;" horiz-adv-x="748" 
d="M123 700h239q155 0 251 -97q96 -96 96 -253q0 -149 -95 -250q-94 -100 -252 -100h-239v304h-72v117h72v279zM252 122h101q104 0 160 59t56 169q0 109 -56 168t-160 59h-101v-156h158v-117h-158v-182z" />
    <glyph glyph-name="dslash" unicode="&#x111;" 
d="M527 676h59v-90h-59v-586h-120l-14 56h-4q-50 -65 -143 -65q-98 0 -157 74q-57 73 -57 195q0 119 57 194t157 75q93 0 143 -65h4v122h-114v90h114v64h134v-64zM168 260q0 -70 29 -110.5t86 -40.5t86 40.5t29 110.5t-28.5 110.5t-86.5 40.5t-86.5 -40t-28.5 -111z" />
    <glyph glyph-name="Emacron" unicode="&#x112;" horiz-adv-x="610" 
d="M479 790h-288v102h288v-102zM564 0h-485v700h485v-123h-348v-155h317v-122h-317v-178h348v-122z" />
    <glyph glyph-name="emacron" unicode="&#x113;" horiz-adv-x="555" 
d="M427 610h-288v102h288v-102zM283 -9q-117 0 -184 75q-67 76 -67 193t64 193q65 77 185 77q113 0 177 -72q65 -73 65 -182v-52h-354q1 -57 30 -89t84 -32q83 0 102 60h131q-10 -73 -74 -123q-62 -48 -159 -48zM170 312h216q-2 49 -29 77t-76 28q-53 0 -81 -28t-30 -77z
" />
    <glyph glyph-name="Ebreve" unicode="&#x114;" horiz-adv-x="610" 
d="M333 765q-75 0 -116 39t-41 108h98q3 -54 59 -54q55 0 58 54h98q0 -70 -40.5 -108.5t-115.5 -38.5zM564 0h-485v700h485v-123h-348v-155h317v-122h-317v-178h348v-122z" />
    <glyph glyph-name="ebreve" unicode="&#x115;" horiz-adv-x="555" 
d="M281 585q-75 0 -116 39t-41 108h98q3 -54 59 -54q55 0 58 54h98q0 -70 -40.5 -108.5t-115.5 -38.5zM283 -9q-117 0 -184 75q-67 76 -67 193t64 193q65 77 185 77q113 0 177 -72q65 -73 65 -182v-52h-354q1 -57 30 -89t84 -32q83 0 102 60h131q-10 -73 -74 -123
q-62 -48 -159 -48zM170 312h216q-2 49 -29 77t-76 28q-53 0 -81 -28t-30 -77z" />
    <glyph glyph-name="Edotaccent" unicode="&#x116;" horiz-adv-x="610" 
d="M406 774h-144v140h144v-140zM564 0h-485v700h485v-123h-348v-155h317v-122h-317v-178h348v-122z" />
    <glyph glyph-name="edotaccent" unicode="&#x117;" horiz-adv-x="555" 
d="M354 594h-144v140h144v-140zM283 -9q-117 0 -184 75q-67 76 -67 193t64 193q65 77 185 77q113 0 177 -72q65 -73 65 -182v-52h-354q1 -57 30 -89t84 -32q83 0 102 60h131q-10 -73 -74 -123q-62 -48 -159 -48zM170 312h216q-2 49 -29 77t-76 28q-53 0 -81 -28t-30 -77z
" />
    <glyph glyph-name="Eogonek" unicode="&#x118;" horiz-adv-x="610" 
d="M564 700v-123h-348v-155h317v-122h-317v-178h348v-122h-4q-38 -16 -61.5 -41t-23.5 -54q0 -43 50 -43h35v-87h-64q-51 0 -91 28q-39 27 -39 77q0 74 73 120h-360v700h485z" />
    <glyph glyph-name="eogonek" unicode="&#x119;" horiz-adv-x="555" 
d="M523 275v-52h-354q1 -57 30 -89t84 -32q83 0 102 60h131q-8 -58 -50 -101.5t-107 -60.5h2q-38 -16 -61.5 -41t-23.5 -54q0 -43 50 -43h35v-87h-64q-51 0 -91 28q-39 27 -39 77q0 68 65 115q-95 17 -147 88q-53 74 -53 176q0 117 64 193q65 77 185 77q113 0 177 -72
q65 -73 65 -182zM170 312h216q-2 49 -29 77t-76 28q-53 0 -81 -28t-30 -77z" />
    <glyph glyph-name="Ecaron" unicode="&#x11a;" horiz-adv-x="610" 
d="M409 765h-148l-96 139v10h108l60 -61h4l60 61h109v-10zM564 0h-485v700h485v-123h-348v-155h317v-122h-317v-178h348v-122z" />
    <glyph glyph-name="ecaron" unicode="&#x11b;" horiz-adv-x="555" 
d="M357 585h-148l-96 139v10h108l60 -61h4l60 61h109v-10zM283 -9q-117 0 -184 75q-67 76 -67 193t64 193q65 77 185 77q113 0 177 -72q65 -73 65 -182v-52h-354q1 -57 30 -89t84 -32q83 0 102 60h131q-10 -73 -74 -123q-62 -48 -159 -48zM170 312h216q-2 49 -29 77t-76 28
q-53 0 -81 -28t-30 -77z" />
    <glyph glyph-name="Gcircumflex" unicode="&#x11c;" horiz-adv-x="716" 
d="M309 765h-108v10l96 139h148l97 -139v-10h-109l-60 61h-4zM368 -9q-158 0 -244 99q-85 100 -85 259q0 162 85 260q85 100 244 100q130 0 210 -70q82 -71 92 -177h-140q-9 55 -50.5 88.5t-111.5 33.5q-92 0 -140.5 -62t-48.5 -173t48.5 -172.5t140.5 -61.5q73 0 116.5 38
t52.5 100h-149v122h289v-73q0 -141 -85 -226t-224 -85z" />
    <glyph glyph-name="gcircumflex" unicode="&#x11d;" 
d="M218 585h-108v10l96 139h148l97 -139v-10h-109l-60 61h-4zM279 -238q-103 0 -167 52q-64 51 -65 135h131q3 -32 30.5 -52t70.5 -20q55 0 84.5 27t29.5 72v80h-4q-50 -65 -143 -65q-100 0 -157 75t-57 193q0 121 57 195q58 75 157 75q93 0 143 -65h4l14 56h120v-546
q0 -94 -69 -153q-70 -59 -179 -59zM195 150q29 -41 88 -41q60 0 87 41q28 41 28 109t-28 109q-28 43 -87 43t-87 -43q-28 -41 -28 -109q0 -67 27 -109z" />
    <glyph glyph-name="Gbreve" unicode="&#x11e;" horiz-adv-x="716" 
d="M368 765q-75 0 -116 39t-41 108h98q3 -54 59 -54q55 0 58 54h98q0 -70 -40.5 -108.5t-115.5 -38.5zM368 -9q-158 0 -244 99q-85 100 -85 259q0 162 85 260q85 100 244 100q130 0 210 -70q82 -71 92 -177h-140q-9 55 -50.5 88.5t-111.5 33.5q-92 0 -140.5 -62t-48.5 -173
t48.5 -172.5t140.5 -61.5q73 0 116.5 38t52.5 100h-149v122h289v-73q0 -141 -85 -226t-224 -85z" />
    <glyph glyph-name="gbreve" unicode="&#x11f;" 
d="M277 585q-75 0 -116 39t-41 108h98q3 -54 59 -54q55 0 58 54h98q0 -70 -40.5 -108.5t-115.5 -38.5zM279 -238q-103 0 -167 52q-64 51 -65 135h131q3 -32 30.5 -52t70.5 -20q55 0 84.5 27t29.5 72v80h-4q-50 -65 -143 -65q-100 0 -157 75t-57 193q0 121 57 195
q58 75 157 75q93 0 143 -65h4l14 56h120v-546q0 -94 -69 -153q-70 -59 -179 -59zM195 150q29 -41 88 -41q60 0 87 41q28 41 28 109t-28 109q-28 43 -87 43t-87 -43q-28 -41 -28 -109q0 -67 27 -109z" />
    <glyph glyph-name="Gdotaccent" unicode="&#x120;" horiz-adv-x="716" 
d="M441 774h-144v140h144v-140zM368 -9q-158 0 -244 99q-85 100 -85 259q0 162 85 260q85 100 244 100q130 0 210 -70q82 -71 92 -177h-140q-9 55 -50.5 88.5t-111.5 33.5q-92 0 -140.5 -62t-48.5 -173t48.5 -172.5t140.5 -61.5q73 0 116.5 38t52.5 100h-149v122h289v-73
q0 -141 -85 -226t-224 -85z" />
    <glyph glyph-name="gdotaccent" unicode="&#x121;" 
d="M350 594h-144v140h144v-140zM279 -238q-103 0 -167 52q-64 51 -65 135h131q3 -32 30.5 -52t70.5 -20q55 0 84.5 27t29.5 72v80h-4q-50 -65 -143 -65q-100 0 -157 75t-57 193q0 121 57 195q58 75 157 75q93 0 143 -65h4l14 56h120v-546q0 -94 -69 -153q-70 -59 -179 -59z
M195 150q29 -41 88 -41q60 0 87 41q28 41 28 109t-28 109q-28 43 -87 43t-87 -43q-28 -41 -28 -109q0 -67 27 -109z" />
    <glyph glyph-name="Gcommaaccent" unicode="&#x122;" horiz-adv-x="716" 
d="M368 -9q-158 0 -244 99q-85 100 -85 259q0 162 85 260q85 100 244 100q130 0 210 -70q82 -71 92 -177h-140q-9 55 -50.5 88.5t-111.5 33.5q-92 0 -140.5 -62t-48.5 -173t48.5 -172.5t140.5 -61.5q73 0 116.5 38t52.5 100h-149v122h289v-73q0 -141 -85 -226t-224 -85z
M375 -215h-89v10l20 154h134v-10z" />
    <glyph glyph-name="gcommaaccent" unicode="&#x123;" 
d="M270 742h89v-10l-20 -154h-134v10zM279 -238q-103 0 -167 52q-64 51 -65 135h131q3 -32 30.5 -52t70.5 -20q55 0 84.5 27t29.5 72v80h-4q-50 -65 -143 -65q-100 0 -157 75t-57 193q0 121 57 195q58 75 157 75q93 0 143 -65h4l14 56h120v-546q0 -94 -69 -153
q-70 -59 -179 -59zM195 150q29 -41 88 -41q60 0 87 41q28 41 28 109t-28 109q-28 43 -87 43t-87 -43q-28 -41 -28 -109q0 -67 27 -109z" />
    <glyph glyph-name="Hcircumflex" unicode="&#x124;" horiz-adv-x="735" 
d="M372 826h-4l-60 -61h-108v10l96 139h148l97 -139v-10h-109zM519 423v277h137v-700h-137v300h-303v-300h-137v700h137v-277h303z" />
    <glyph glyph-name="hcircumflex" unicode="&#x125;" horiz-adv-x="588" 
d="M70 797h-108v10l96 139h148l97 -139v-10h-109l-60 61h-4zM195 0h-134v740h134v-279h4q51 68 147 68q87 0 138.5 -50.5t51.5 -137.5v-341h-134v303q0 104 -97 104q-49 0 -79.5 -33t-30.5 -87v-287z" />
    <glyph glyph-name="Hbar" unicode="&#x126;" horiz-adv-x="806" 
d="M693 623h52v-113h-52v-510h-137v300h-304v-300h-137v510h-54v113h54v77h137v-77h304v77h137v-77zM252 423h304v87h-304v-87z" />
    <glyph glyph-name="hbar" unicode="&#x127;" horiz-adv-x="588" 
d="M346 529q87 0 138.5 -50.5t51.5 -137.5v-341h-134v303q0 104 -97 104q-49 0 -79.5 -33t-30.5 -87v-287h-134v586h-58v90h58v64h134v-64h114v-90h-114v-125h4q51 68 147 68z" />
    <glyph glyph-name="Itilde" unicode="&#x128;" horiz-adv-x="295" 
d="M201 768q-36 0 -68 19l-15 8q-23 13 -37 13q-30 0 -30 -38h-83v15q0 56 28.5 88t76.5 32q28 0 70 -20l15 -8q25 -14 37 -14q28 0 28 40h82v-15q0 -120 -104 -120zM217 0h-138v700h138v-700z" />
    <glyph glyph-name="itilde" unicode="&#x129;" horiz-adv-x="247" 
d="M180 588q-36 0 -68 19l-15 8q-23 13 -37 13q-30 0 -30 -38h-83v15q0 56 28.5 88t76.5 32q28 0 70 -20l15 -8q25 -14 37 -14q28 0 28 40h82v-15q0 -120 -104 -120zM195 0h-134v520h134v-520z" />
    <glyph glyph-name="Imacron" unicode="&#x12a;" horiz-adv-x="295" 
d="M295 790h-288v102h288v-102zM217 0h-138v700h138v-700z" />
    <glyph glyph-name="imacron" unicode="&#x12b;" horiz-adv-x="247" 
d="M274 610h-288v102h288v-102zM195 0h-134v520h134v-520z" />
    <glyph glyph-name="Ibreve" unicode="&#x12c;" horiz-adv-x="295" 
d="M149 765q-75 0 -116 39t-41 108h98q3 -54 59 -54q55 0 58 54h98q0 -70 -40.5 -108.5t-115.5 -38.5zM217 0h-138v700h138v-700z" />
    <glyph glyph-name="ibreve" unicode="&#x12d;" horiz-adv-x="247" 
d="M128 585q-75 0 -116 39t-41 108h98q3 -54 59 -54q55 0 58 54h98q0 -70 -40.5 -108.5t-115.5 -38.5zM195 0h-134v520h134v-520z" />
    <glyph glyph-name="Iogonek" unicode="&#x12e;" horiz-adv-x="295" 
d="M79 0v700h138v-700h-1q-38 -16 -61.5 -41t-23.5 -54q0 -43 50 -43h35v-87h-64q-51 0 -91 28q-39 27 -39 77q0 74 73 120h-16z" />
    <glyph glyph-name="iogonek" unicode="&#x12f;" horiz-adv-x="247" 
d="M57 594v140h144v-140h-144zM74 0h-13v520h134v-520q-38 -16 -61.5 -41t-23.5 -54q0 -43 50 -43h35v-87h-64q-51 0 -91 28q-39 27 -39 77q0 74 73 120z" />
    <glyph glyph-name="Idot" unicode="&#x130;" horiz-adv-x="295" 
d="M222 774h-144v140h144v-140zM217 0h-138v700h138v-700z" />
    <glyph glyph-name="dotlessi" unicode="&#x131;" horiz-adv-x="247" 
d="M195 0h-134v520h134v-520z" />
    <glyph glyph-name="IJ" unicode="&#x132;" horiz-adv-x="838" 
d="M217 0h-138v700h138v-700zM537 -9q-107 0 -167 61q-59 62 -59 155h134q1 -90 94 -90q46 0 69 25.5t23 71.5v486h138v-486q0 -101 -61 -162t-171 -61z" />
    <glyph glyph-name="ij" unicode="&#x133;" horiz-adv-x="501" 
d="M200 594h-144v140h144v-140zM454 594h-144v140h144v-140zM195 0h-134v520h134v-520zM273 -238h-62v124h38q66 0 66 73v561h134v-589q0 -81 -47.5 -125t-128.5 -44z" />
    <glyph glyph-name="Jcircumflex" unicode="&#x134;" horiz-adv-x="543" 
d="M342 765h-108v10l96 139h148l97 -139v-10h-109l-60 61h-4zM242 -9q-107 0 -167 61q-59 62 -59 155h134q2 -90 94 -90q46 0 69 25.5t23 71.5v486h138v-486q0 -101 -61 -162t-171 -61z" />
    <glyph glyph-name="jcircumflex" unicode="&#x135;" horiz-adv-x="254" 
d="M73 585h-108v10l96 139h148l97 -139v-10h-109l-60 61h-4zM26 -238h-62v124h38q66 0 66 73v561h134v-589q0 -81 -47.5 -125t-128.5 -44z" />
    <glyph glyph-name="Kcommaaccent" unicode="&#x136;" horiz-adv-x="663" 
d="M642 690l-305 -325l316 -355v-10h-163l-274 311v-311h-137v700h137v-284l265 284h161v-10zM267 -215v10l20 154h134v-10l-65 -154h-89z" />
    <glyph glyph-name="kcommaaccent" unicode="&#x137;" horiz-adv-x="548" 
d="M525 510l-210 -231l220 -269v-10h-161l-186 235v-235h-127v740h127v-422l181 202h156v-10zM196 -215v10l20 154h134v-10l-65 -154h-89z" />
    <glyph glyph-name="kgreenlandic" unicode="&#x138;" horiz-adv-x="548" 
d="M525 510l-210 -234l220 -266v-10h-161l-186 232v-232h-127v520h127v-204l181 204h156v-10z" />
    <glyph glyph-name="Lacute" unicode="&#x139;" horiz-adv-x="554" 
d="M183 763h-100v10l69 143h147v-10zM539 0h-460v700h137v-577h323v-123z" />
    <glyph glyph-name="lacute" unicode="&#x13a;" horiz-adv-x="247" 
d="M163 795h-100v10l69 143h147v-10zM195 0h-134v740h134v-740z" />
    <glyph glyph-name="Lcommaaccent" unicode="&#x13b;" horiz-adv-x="554" 
d="M539 0h-460v700h137v-577h323v-123zM313 -215h-89v10l20 154h134v-10z" />
    <glyph glyph-name="lcommaaccent" unicode="&#x13c;" horiz-adv-x="247" 
d="M195 0h-134v740h134v-740zM129 -215h-89v10l20 154h134v-10z" />
    <glyph glyph-name="Lcaron" unicode="&#x13d;" horiz-adv-x="554" 
d="M539 0h-460v700h137v-577h323v-123zM415 530h-88v170h134v-10z" />
    <glyph glyph-name="lcaron" unicode="&#x13e;" horiz-adv-x="303" 
d="M195 0h-134v740h134v-740zM328 570h-88v170h134v-10z" />
    <glyph glyph-name="Ldot" unicode="&#x13f;" horiz-adv-x="600" 
d="M539 0h-460v700h137v-577h323v-123zM467 297h-148v143h148v-143z" />
    <glyph glyph-name="ldot" unicode="&#x140;" horiz-adv-x="426" 
d="M195 0h-134v740h134v-740zM396 295h-148v143h148v-143z" />
    <glyph glyph-name="Lslash" unicode="&#x141;" horiz-adv-x="624" 
d="M286 298v-175h323v-123h-460v245l-60 -23h-10v112l70 28v338h137v-285l172 68h10v-115z" />
    <glyph glyph-name="lslash" unicode="&#x142;" horiz-adv-x="357" 
d="M321 468h10v-107l-83 -38v-323h-134v260l-68 -31h-10v105l78 37v369h134v-306z" />
    <glyph glyph-name="Nacute" unicode="&#x143;" horiz-adv-x="743" 
d="M431 763h-100v10l69 143h147v-10zM214 0h-135v700h159l286 -486h4v486h136v-700h-160l-286 483h-4v-483z" />
    <glyph glyph-name="nacute" unicode="&#x144;" horiz-adv-x="584" 
d="M365 583h-100v10l69 143h147v-10zM195 0h-134v520h120l10 -59h4q51 68 148 68q86 0 137.5 -51t51.5 -137v-341h-134v303q0 104 -96 104q-48 0 -77.5 -32.5t-29.5 -86.5v-288z" />
    <glyph glyph-name="Ncommaaccent" unicode="&#x145;" horiz-adv-x="743" 
d="M214 0h-135v700h159l286 -486h4v486h136v-700h-160l-286 483h-4v-483zM367 -215h-89v10l20 154h134v-10z" />
    <glyph glyph-name="ncommaaccent" unicode="&#x146;" horiz-adv-x="584" 
d="M195 0h-134v520h120l10 -59h4q51 68 148 68q86 0 137.5 -51t51.5 -137v-341h-134v303q0 104 -96 104q-48 0 -77.5 -32.5t-29.5 -86.5v-288zM309 -215h-89v10l20 154h134v-10z" />
    <glyph glyph-name="Ncaron" unicode="&#x147;" horiz-adv-x="743" 
d="M470 765h-148l-96 139v10h108l60 -61h4l60 61h109v-10zM214 0h-135v700h159l286 -486h4v486h136v-700h-160l-286 483h-4v-483z" />
    <glyph glyph-name="ncaron" unicode="&#x148;" horiz-adv-x="584" 
d="M404 585h-148l-96 139v10h108l60 -61h4l60 61h109v-10zM195 0h-134v520h120l10 -59h4q51 68 148 68q86 0 137.5 -51t51.5 -137v-341h-134v303q0 104 -96 104q-48 0 -77.5 -32.5t-29.5 -86.5v-288z" />
    <glyph glyph-name="napostrophe" unicode="&#x149;" horiz-adv-x="605" 
d="M12 463h-103v10l31 241h149v-10zM195 0h-134v520h120l10 -59h4q51 68 148 68q86 0 137.5 -51t51.5 -137v-341h-134v303q0 104 -96 104q-48 0 -77.5 -32.5t-29.5 -86.5v-288z" />
    <glyph glyph-name="Eng" unicode="&#x14a;" horiz-adv-x="743" 
d="M528 214v486h136v-716q0 -100 -61 -161q-62 -62 -171 -62v126q47 0 71.5 26t24.5 71v16h-24l-286 483h-4v-483h-135v700h159l286 -486h4z" />
    <glyph glyph-name="eng" unicode="&#x14b;" horiz-adv-x="584" 
d="M343 529q87 0 138 -50.5t51 -137.5v-410q0 -81 -47.5 -125t-128.5 -44q-34 0 -62 7v120q19 -3 38 -3q66 0 66 73v344q0 104 -96 104q-48 0 -77.5 -32.5t-29.5 -86.5v-288h-134v520h120l10 -59h4q51 68 148 68z" />
    <glyph glyph-name="Omacron" unicode="&#x14c;" horiz-adv-x="740" 
d="M517 790h-288v102h288v-102zM370 -9q-161 0 -246 100t-85 259q0 158 85 258q86 101 246 101q159 0 245 -101t86 -258q0 -158 -86 -259q-85 -100 -245 -100zM227 178q48 -62 143 -62t143 62q48 63 48 172q0 110 -48 171q-48 63 -143 63t-143 -63q-48 -61 -48 -171
q0 -109 48 -172z" />
    <glyph glyph-name="omacron" unicode="&#x14d;" horiz-adv-x="569" 
d="M431 610h-288v102h288v-102zM285 -9q-122 0 -188 74q-65 74 -65 194t66 195t187 75q120 0 186 -75t66 -195q0 -119 -66 -194q-65 -74 -186 -74zM401 259q0 152 -116 152t-116 -152q0 -150 116 -150t116 150z" />
    <glyph glyph-name="Obreve" unicode="&#x14e;" horiz-adv-x="740" 
d="M371 765q-75 0 -116 39t-41 108h98q3 -54 59 -54q55 0 58 54h98q0 -70 -40.5 -108.5t-115.5 -38.5zM370 -9q-161 0 -246 100t-85 259q0 158 85 258q86 101 246 101q159 0 245 -101t86 -258q0 -158 -86 -259q-85 -100 -245 -100zM227 178q48 -62 143 -62t143 62
q48 63 48 172q0 110 -48 171q-48 63 -143 63t-143 -63q-48 -61 -48 -171q0 -109 48 -172z" />
    <glyph glyph-name="obreve" unicode="&#x14f;" horiz-adv-x="569" 
d="M285 585q-75 0 -116 39t-41 108h98q3 -54 59 -54q55 0 58 54h98q0 -70 -40.5 -108.5t-115.5 -38.5zM285 -9q-122 0 -188 74q-65 74 -65 194t66 195t187 75q120 0 186 -75t66 -195q0 -119 -66 -194q-65 -74 -186 -74zM401 259q0 152 -116 152t-116 -152q0 -150 116 -150
t116 150z" />
    <glyph glyph-name="Ohungarumlaut" unicode="&#x150;" horiz-adv-x="740" 
d="M309 763h-90v10l49 143h143v-10zM491 763h-89v10l48 143h143v-10zM370 -9q-161 0 -246 100t-85 259q0 158 85 258q86 101 246 101q159 0 245 -101t86 -258q0 -158 -86 -259q-85 -100 -245 -100zM227 178q48 -62 143 -62t143 62q48 63 48 172q0 110 -48 171
q-48 63 -143 63t-143 -63q-48 -61 -48 -171q0 -109 48 -172z" />
    <glyph glyph-name="ohungarumlaut" unicode="&#x151;" horiz-adv-x="569" 
d="M223 583h-90v10l49 143h143v-10zM405 583h-89v10l48 143h143v-10zM285 -9q-122 0 -188 74q-65 74 -65 194t66 195t187 75q120 0 186 -75t66 -195q0 -119 -66 -194q-65 -74 -186 -74zM401 259q0 152 -116 152t-116 -152q0 -150 116 -150t116 150z" />
    <glyph glyph-name="OE" unicode="&#x152;" horiz-adv-x="1095" 
d="M1049 700v-123h-348v-155h317v-122h-317v-178h348v-122h-485v48q-80 -57 -194 -57q-161 0 -246 100t-85 259q0 158 85 258q86 101 246 101q114 0 194 -56v47h485zM227 178q48 -62 143 -62t143 62q48 63 48 172q0 110 -48 171q-48 63 -143 63t-143 -63q-48 -61 -48 -171
q0 -109 48 -172z" />
    <glyph glyph-name="oe" unicode="&#x153;" horiz-adv-x="923" 
d="M891 275v-52h-353q1 -57 30 -89t84 -32q81 0 102 60h130q-10 -72 -74 -122q-61 -49 -158 -49q-116 0 -180 75q-68 -75 -187 -75q-122 0 -188 74q-65 74 -65 194t66 195t187 75q117 0 185 -74q65 74 179 74q113 0 177 -72q65 -71 65 -182zM539 312h215q-2 49 -29 77
t-76 28q-52 0 -80 -28t-30 -77zM401 259q0 152 -116 152t-116 -152q0 -150 116 -150t116 150z" />
    <glyph glyph-name="Racute" unicode="&#x154;" horiz-adv-x="670" 
d="M489 916v-10l-116 -143h-100v10l69 143h147zM479 272l174 -262v-10h-158l-161 256h-118v-256h-137v700h307q107 0 170 -63q64 -63 64 -156q0 -75 -37.5 -130t-103.5 -79zM379 577h-163v-199h163q49 0 74.5 27.5t25.5 74.5q0 43 -26.5 70t-73.5 27z" />
    <glyph glyph-name="racute" unicode="&#x155;" horiz-adv-x="389" 
d="M249 583h-100v10l69 143h147v-10zM188 0h-127v520h113l10 -79h4q40 87 135 87h38v-124h-47q-60 0 -93 -39t-33 -110v-255z" />
    <glyph glyph-name="Rcommaaccent" unicode="&#x156;" horiz-adv-x="670" 
d="M479 272l174 -262v-10h-158l-161 256h-118v-256h-137v700h307q107 0 170 -63q64 -63 64 -156q0 -75 -37.5 -130t-103.5 -79zM379 577h-163v-199h163q49 0 74.5 27.5t25.5 74.5q0 43 -26.5 70t-73.5 27zM268 -215v10l20 154h134v-10l-65 -154h-89z" />
    <glyph glyph-name="rcommaaccent" unicode="&#x157;" horiz-adv-x="389" 
d="M188 0h-127v520h113l10 -79h4q40 87 135 87h38v-124h-47q-60 0 -93 -39t-33 -110v-255zM167 -215h-89v10l20 154h134v-10z" />
    <glyph glyph-name="Rcaron" unicode="&#x158;" horiz-adv-x="670" 
d="M509 904l-97 -139h-148l-96 139v10h108l60 -61h4l60 61h109v-10zM479 272l174 -262v-10h-158l-161 256h-118v-256h-137v700h307q107 0 170 -63q64 -63 64 -156q0 -75 -37.5 -130t-103.5 -79zM379 577h-163v-199h163q49 0 74.5 27.5t25.5 74.5q0 43 -26.5 70t-73.5 27z
" />
    <glyph glyph-name="rcaron" unicode="&#x159;" horiz-adv-x="389" 
d="M288 585h-148l-96 139v10h108l60 -61h4l60 61h109v-10zM188 0h-127v520h113l10 -79h4q40 87 135 87h38v-124h-47q-60 0 -93 -39t-33 -110v-255z" />
    <glyph glyph-name="Sacute" unicode="&#x15a;" horiz-adv-x="632" 
d="M353 763h-100v10l69 143h147v-10zM315 -9q-133 0 -207 63.5t-79 176.5h139q4 -57 42 -87.5t105 -30.5q142 0 142 86q0 35 -22.5 55t-73.5 31l-102 22q-104 22 -155.5 70t-51.5 134q0 89 71 143q71 55 193 55q117 0 193 -62q75 -61 77 -160h-139q-3 46 -37 72.5t-96 26.5
q-59 0 -90 -20t-31 -55q0 -56 90 -77l95 -20q109 -23 164.5 -73.5t55.5 -138.5q0 -100 -72 -155.5t-211 -55.5z" />
    <glyph glyph-name="sacute" unicode="&#x15b;" horiz-adv-x="511" 
d="M294 583h-100v10l69 143h147v-10zM258 -9q-108 0 -166 49t-60 135h134q0 -32 24.5 -51.5t67.5 -19.5q41 0 63.5 13t22.5 35q0 38 -60 50l-84 16q-152 29 -152 158q0 67 56.5 110t150.5 43q96 0 154 -49q58 -48 58 -124h-132q0 30 -22 48t-60 18q-34 0 -54 -13t-20 -34
q0 -36 53 -47l95 -17q75 -15 113.5 -52t38.5 -106q0 -75 -62 -119q-61 -43 -159 -43z" />
    <glyph glyph-name="Scircumflex" unicode="&#x15c;" horiz-adv-x="632" 
d="M257 765h-108v10l96 139h148l97 -139v-10h-109l-60 61h-4zM315 -9q-133 0 -207 63.5t-79 176.5h139q4 -57 42 -87.5t105 -30.5q142 0 142 86q0 35 -22.5 55t-73.5 31l-102 22q-104 22 -155.5 70t-51.5 134q0 89 71 143q71 55 193 55q117 0 193 -62q75 -61 77 -160h-139
q-3 46 -37 72.5t-96 26.5q-59 0 -90 -20t-31 -55q0 -56 90 -77l95 -20q109 -23 164.5 -73.5t55.5 -138.5q0 -100 -72 -155.5t-211 -55.5z" />
    <glyph glyph-name="scircumflex" unicode="&#x15d;" horiz-adv-x="511" 
d="M198 585h-108v10l96 139h148l97 -139v-10h-109l-60 61h-4zM258 -9q-108 0 -166 49t-60 135h134q0 -32 24.5 -51.5t67.5 -19.5q41 0 63.5 13t22.5 35q0 38 -60 50l-84 16q-152 29 -152 158q0 67 56.5 110t150.5 43q96 0 154 -49q58 -48 58 -124h-132q0 30 -22 48t-60 18
q-34 0 -54 -13t-20 -34q0 -36 53 -47l95 -17q75 -15 113.5 -52t38.5 -106q0 -75 -62 -119q-61 -43 -159 -43z" />
    <glyph glyph-name="Scedilla" unicode="&#x15e;" horiz-adv-x="632" 
d="M598 202q0 -91 -59.5 -145.5t-176.5 -63.5l-22 -32q43 -2 70 -26.5t27 -62.5q0 -43 -37 -70t-101 -27q-56 0 -92 27t-36 72h82q0 -14 12.5 -22.5t32.5 -8.5t33.5 8t13.5 22q0 31 -44 31h-32l-25 31l29 58q-113 10 -176 72.5t-68 165.5h139q4 -57 42 -87.5t105 -30.5
q142 0 142 86q0 35 -22.5 55t-73.5 31l-102 22q-104 22 -155.5 70t-51.5 134q0 89 71 143q71 55 193 55q117 0 193 -62q75 -61 77 -160h-139q-3 46 -37 72.5t-96 26.5q-59 0 -90 -20t-31 -55q0 -56 90 -77l95 -20q109 -23 164.5 -73.5t55.5 -138.5z" />
    <glyph glyph-name="scedilla" unicode="&#x15f;" horiz-adv-x="511" 
d="M479 153q0 -67 -49 -109t-132 -51l-22 -32q43 -2 70 -26.5t27 -62.5q0 -43 -37 -70t-101 -27q-56 0 -92 27t-36 72h82q0 -14 12.5 -22.5t32.5 -8.5t33.5 8t13.5 22q0 31 -44 31h-32l-25 31l30 59q-85 10 -130.5 57.5t-47.5 123.5h134q0 -32 24.5 -51.5t67.5 -19.5
q41 0 63.5 13t22.5 35q0 38 -60 50l-84 16q-152 29 -152 158q0 67 56.5 110t150.5 43q96 0 154 -49q58 -48 58 -124h-132q0 30 -22 48t-60 18q-34 0 -54 -13t-20 -34q0 -36 53 -47l95 -17q75 -15 113.5 -52t38.5 -106z" />
    <glyph glyph-name="Scaron" unicode="&#x160;" horiz-adv-x="632" 
d="M392 765h-148l-96 139v10h108l60 -61h4l60 61h109v-10zM315 -9q-133 0 -207 63.5t-79 176.5h139q4 -57 42 -87.5t105 -30.5q142 0 142 86q0 35 -22.5 55t-73.5 31l-102 22q-104 22 -155.5 70t-51.5 134q0 89 71 143q71 55 193 55q117 0 193 -62q75 -61 77 -160h-139
q-3 46 -37 72.5t-96 26.5q-59 0 -90 -20t-31 -55q0 -56 90 -77l95 -20q109 -23 164.5 -73.5t55.5 -138.5q0 -100 -72 -155.5t-211 -55.5z" />
    <glyph glyph-name="scaron" unicode="&#x161;" horiz-adv-x="511" 
d="M333 585h-148l-96 139v10h108l60 -61h4l60 61h109v-10zM258 -9q-108 0 -166 49t-60 135h134q0 -32 24.5 -51.5t67.5 -19.5q41 0 63.5 13t22.5 35q0 38 -60 50l-84 16q-152 29 -152 158q0 67 56.5 110t150.5 43q96 0 154 -49q58 -48 58 -124h-132q0 30 -22 48t-60 18
q-34 0 -54 -13t-20 -34q0 -36 53 -47l95 -17q75 -15 113.5 -52t38.5 -106q0 -75 -62 -119q-61 -43 -159 -43z" />
    <glyph glyph-name="uni0162" unicode="&#x162;" horiz-adv-x="592" 
d="M365 0h-138v576h-206v124h550v-124h-206v-576zM295 -215h-89v10l20 154h134v-10z" />
    <glyph glyph-name="uni0163" unicode="&#x163;" horiz-adv-x="417" 
d="M372 0h-98q-81 0 -122 41.5t-41 116.5v248h-85v114h90v137h129v-137h125v-114h-125v-219q0 -37 16 -53.5t51 -16.5h60v-117zM245 -215h-89v10l20 154h134v-10z" />
    <glyph glyph-name="Tcaron" unicode="&#x164;" horiz-adv-x="592" 
d="M376 765h-148l-96 139v10h108l60 -61h4l60 61h109v-10zM365 0h-138v576h-206v124h550v-124h-206v-576z" />
    <glyph glyph-name="tcaron" unicode="&#x165;" horiz-adv-x="417" 
d="M390 570h-89v170h134v-10zM372 0h-98q-81 0 -122 41.5t-41 116.5v248h-85v114h90v137h129v-137h125v-114h-125v-219q0 -37 16 -53.5t51 -16.5h60v-117z" />
    <glyph glyph-name="Tbar" unicode="&#x166;" horiz-adv-x="598" 
d="M571 700v-124h-206v-147h167v-115h-167v-314h-138v314h-161v115h161v147h-206v124h550z" />
    <glyph glyph-name="tbar" unicode="&#x167;" horiz-adv-x="417" 
d="M362 116h10v-112q-40 -13 -98 -13q-81 0 -122 41.5t-41 116.5v98h-85v91h85v68h-85v114h90v109l119 28h10v-137h125v-114h-125v-68h117v-91h-117v-69q0 -37 16 -53.5t51 -16.5q24 0 50 8z" />
    <glyph glyph-name="Utilde" unicode="&#x168;" horiz-adv-x="714" 
d="M408 768q-36 0 -68 19l-15 8q-23 13 -37 13q-30 0 -30 -38h-83v15q0 56 28.5 88t76.5 32q28 0 70 -20l15 -8q25 -14 37 -14q28 0 28 40h82v-15q0 -120 -104 -120zM356 -9q-128 0 -208 72q-79 73 -79 205v432h137v-430q0 -156 150 -156q151 0 151 156v430h138v-432
q0 -133 -80 -205q-79 -72 -209 -72z" />
    <glyph glyph-name="utilde" unicode="&#x169;" horiz-adv-x="580" 
d="M344 588q-36 0 -68 19l-15 8q-23 13 -37 13q-30 0 -30 -38h-83v15q0 56 28.5 88t76.5 32q28 0 70 -20l15 -8q26 -14 37 -14q28 0 28 40h82v-15q0 -120 -104 -120zM248 -9q-86 0 -137.5 51t-51.5 137v341h134v-303q0 -104 96 -104q48 0 77.5 32.5t29.5 86.5v288h134v-520
h-120l-10 59h-4q-51 -68 -148 -68z" />
    <glyph glyph-name="Umacron" unicode="&#x16a;" horiz-adv-x="714" 
d="M502 790h-288v102h288v-102zM356 -9q-128 0 -208 72q-79 73 -79 205v432h137v-430q0 -156 150 -156q151 0 151 156v430h138v-432q0 -133 -80 -205q-79 -72 -209 -72z" />
    <glyph glyph-name="umacron" unicode="&#x16b;" horiz-adv-x="580" 
d="M438 610h-288v102h288v-102zM248 -9q-86 0 -137.5 51t-51.5 137v341h134v-303q0 -104 96 -104q48 0 77.5 32.5t29.5 86.5v288h134v-520h-120l-10 59h-4q-51 -68 -148 -68z" />
    <glyph glyph-name="Ubreve" unicode="&#x16c;" horiz-adv-x="714" 
d="M356 765q-75 0 -116 39t-41 108h98q3 -54 59 -54q55 0 58 54h98q0 -70 -40.5 -108.5t-115.5 -38.5zM356 -9q-128 0 -208 72q-79 73 -79 205v432h137v-430q0 -156 150 -156q151 0 151 156v430h138v-432q0 -133 -80 -205q-79 -72 -209 -72z" />
    <glyph glyph-name="ubreve" unicode="&#x16d;" horiz-adv-x="580" 
d="M292 585q-75 0 -116 39t-41 108h98q3 -54 59 -54q55 0 58 54h98q0 -70 -40.5 -108.5t-115.5 -38.5zM248 -9q-86 0 -137.5 51t-51.5 137v341h134v-303q0 -104 96 -104q48 0 77.5 32.5t29.5 86.5v288h134v-520h-120l-10 59h-4q-51 -68 -148 -68z" />
    <glyph glyph-name="Uring" unicode="&#x16e;" horiz-adv-x="714" 
d="M356 749q-50 0 -83 31.5t-33 80.5t33 81t83 32q51 0 83.5 -31.5t32.5 -81.5q0 -49 -32.5 -80.5t-83.5 -31.5zM355 817q28 -2 40 21t0 46.5t-40 21.5q-27 2 -38.5 -21.5t0 -46.5t38.5 -21zM356 -9q-128 0 -208 72q-79 73 -79 205v432h137v-430q0 -156 150 -156
q151 0 151 156v430h138v-432q0 -133 -80 -205q-79 -72 -209 -72z" />
    <glyph glyph-name="uring" unicode="&#x16f;" horiz-adv-x="580" 
d="M292 569q-50 0 -83 31.5t-33 80.5t33 81t83 32q51 0 83.5 -31.5t32.5 -81.5q0 -49 -32.5 -80.5t-83.5 -31.5zM291 637q28 -2 40 21t0 46.5t-40 21.5q-27 2 -38.5 -21.5t0 -46.5t38.5 -21zM248 -9q-86 0 -137.5 51t-51.5 137v341h134v-303q0 -104 96 -104q48 0 77.5 32.5
t29.5 86.5v288h134v-520h-120l-10 59h-4q-51 -68 -148 -68z" />
    <glyph glyph-name="Uhungarumlaut" unicode="&#x170;" horiz-adv-x="714" 
d="M294 763h-90v10l49 143h143v-10zM476 763h-89v10l48 143h143v-10zM356 -9q-128 0 -208 72q-79 73 -79 205v432h137v-430q0 -156 150 -156q151 0 151 156v430h138v-432q0 -133 -80 -205q-79 -72 -209 -72z" />
    <glyph glyph-name="uhungarumlaut" unicode="&#x171;" horiz-adv-x="580" 
d="M230 583h-90v10l49 143h143v-10zM412 583h-89v10l48 143h143v-10zM248 -9q-86 0 -137.5 51t-51.5 137v341h134v-303q0 -104 96 -104q48 0 77.5 32.5t29.5 86.5v288h134v-520h-120l-10 59h-4q-51 -68 -148 -68z" />
    <glyph glyph-name="Uogonek" unicode="&#x172;" horiz-adv-x="714" 
d="M507 270v430h138v-432q0 -109 -56 -178.5t-154 -90.5q-37 -16 -59.5 -41t-22.5 -53q0 -43 50 -43h35v-87h-64q-51 0 -91 28q-39 27 -39 77q0 69 64 114q-111 13 -175 85t-64 189v432h137v-430q0 -156 150 -156q151 0 151 156z" />
    <glyph glyph-name="uogonek" unicode="&#x173;" horiz-adv-x="580" 
d="M396 232v288h134v-520h-6q-38 -16 -61.5 -41t-23.5 -54q0 -43 50 -43h35v-87h-64q-51 0 -91 28q-39 27 -39 77q0 78 79 124l-9 55h-4q-51 -68 -148 -68q-86 0 -137.5 51t-51.5 137v341h134v-303q0 -104 96 -104q48 0 77.5 32.5t29.5 86.5z" />
    <glyph glyph-name="Wcircumflex" unicode="&#x174;" horiz-adv-x="937" 
d="M408 765h-108v10l96 139h148l97 -139v-10h-109l-60 61h-4zM349 0h-170l-163 690v10h145l104 -506h4l124 506h150l126 -506h4l104 506h144v-10l-164 -690h-170l-116 490h-4z" />
    <glyph glyph-name="wcircumflex" unicode="&#x175;" horiz-adv-x="809" 
d="M349 581h-108v10l96 139h148l97 -139v-10h-109l-60 61h-4zM316 0h-170l-133 510v10h133l85 -370h4l84 370h172l84 -370h4l86 370h131v-10l-132 -510h-170l-86 369h-4z" />
    <glyph glyph-name="Ycircumflex" unicode="&#x176;" horiz-adv-x="684" 
d="M290 765h-108v10l96 139h148l97 -139v-10h-109l-60 61h-4zM412 0h-138v282l-258 408v10h158l168 -281h4l164 281h158v-10l-256 -407v-283z" />
    <glyph glyph-name="ycircumflex" unicode="&#x177;" horiz-adv-x="556" 
d="M227 585h-108v10l96 139h148l97 -139v-10h-109l-60 61h-4zM13 510v10h138l120 -380h4l124 380h144v-10l-269 -739h-144v10l79 220l-19 1z" />
    <glyph glyph-name="Ydieresis" unicode="&#x178;" horiz-adv-x="684" 
d="M316 785h-122v122h122v-122zM509 785h-121v122h121v-122zM412 0h-138v282l-258 408v10h158l168 -281h4l164 281h158v-10l-256 -407v-283z" />
    <glyph glyph-name="Zacute" unicode="&#x179;" horiz-adv-x="597" 
d="M337 763h-100v10l69 143h147v-10zM564 0h-531v120l353 452v4h-344v124h516v-122l-352 -451v-4h358v-123z" />
    <glyph glyph-name="zacute" unicode="&#x17a;" horiz-adv-x="502" 
d="M295 583h-100v10l69 143h147v-10zM461 0h-420v112l255 290v4h-254v114h417v-113l-254 -289v-4h256v-114z" />
    <glyph glyph-name="Zdotaccent" unicode="&#x17b;" horiz-adv-x="597" 
d="M373 774h-144v140h144v-140zM564 0h-531v120l353 452v4h-344v124h516v-122l-352 -451v-4h358v-123z" />
    <glyph glyph-name="zdotaccent" unicode="&#x17c;" horiz-adv-x="502" 
d="M331 594h-144v140h144v-140zM461 0h-420v112l255 290v4h-254v114h417v-113l-254 -289v-4h256v-114z" />
    <glyph glyph-name="Zcaron" unicode="&#x17d;" horiz-adv-x="597" 
d="M376 765h-148l-96 139v10h108l60 -61h4l60 61h109v-10zM564 0h-531v120l353 452v4h-344v124h516v-122l-352 -451v-4h358v-123z" />
    <glyph glyph-name="zcaron" unicode="&#x17e;" horiz-adv-x="502" 
d="M334 585h-148l-96 139v10h108l60 -61h4l60 61h109v-10zM461 0h-420v112l255 290v4h-254v114h417v-113l-254 -289v-4h256v-114z" />
    <glyph glyph-name="florin" unicode="&#x192;" horiz-adv-x="469" 
d="M173 -229h-134v10l80 518h-93v113h111l19 123q28 189 214 189h73v-115h-60q-83 0 -96 -87l-17 -110h131v-113h-148z" />
    <glyph glyph-name="uni01CD" unicode="&#x1cd;" horiz-adv-x="696" 
d="M520 904l-97 -139h-148l-96 139v10h108l60 -61h4l60 61h109v-10zM261 700h174l246 -690v-10h-151l-48 147h-274l-48 -147h-144v10zM343 560l-95 -292h194l-95 292h-4z" />
    <glyph glyph-name="uni01CE" unicode="&#x1ce;" horiz-adv-x="543" 
d="M352 585h-148l-96 139v10h108l60 -61h4l60 61h109v-10zM214 -9q-84 0 -133 45t-49 117q0 76 53.5 118.5t156.5 42.5h116v29q0 35 -23 55.5t-67 20.5q-40 0 -63.5 -18.5t-23.5 -48.5h-126q0 77 56 127q58 50 160 50t161.5 -51t59.5 -134v-344h-119l-10 54h-4
q-48 -63 -145 -63zM246 97q50 0 81 27.5t31 68.5v28h-106q-87 0 -87 -62q0 -28 21.5 -45t59.5 -17z" />
    <glyph glyph-name="uni01CF" unicode="&#x1cf;" horiz-adv-x="295" 
d="M225 765h-148l-96 139v10h108l60 -61h4l60 61h109v-10zM217 0h-138v700h138v-700z" />
    <glyph glyph-name="uni01D0" unicode="&#x1d0;" horiz-adv-x="247" 
d="M204 585h-148l-96 139v10h108l60 -61h4l60 61h109v-10zM195 0h-134v520h134v-520z" />
    <glyph glyph-name="uni01D1" unicode="&#x1d1;" horiz-adv-x="740" 
d="M447 765h-148l-96 139v10h108l60 -61h4l60 61h109v-10zM370 -9q-161 0 -246 100t-85 259q0 158 85 258q86 101 246 101q159 0 245 -101t86 -258q0 -158 -86 -259q-85 -100 -245 -100zM227 178q48 -62 143 -62t143 62q48 63 48 172q0 110 -48 171q-48 63 -143 63t-143 -63
q-48 -61 -48 -171q0 -109 48 -172z" />
    <glyph glyph-name="uni01D2" unicode="&#x1d2;" horiz-adv-x="569" 
d="M361 585h-148l-96 139v10h108l60 -61h4l60 61h109v-10zM285 -9q-122 0 -188 74q-65 74 -65 194t66 195t187 75q120 0 186 -75t66 -195q0 -119 -66 -194q-65 -74 -186 -74zM401 259q0 152 -116 152t-116 -152q0 -150 116 -150t116 150z" />
    <glyph glyph-name="Gcaron" unicode="&#x1e6;" horiz-adv-x="716" 
d="M444 765h-148l-96 139v10h108l60 -61h4l60 61h109v-10zM368 -9q-158 0 -244 99q-85 100 -85 259q0 162 85 260q85 100 244 100q130 0 210 -70q82 -71 92 -177h-140q-9 55 -50.5 88.5t-111.5 33.5q-92 0 -140.5 -62t-48.5 -173t48.5 -172.5t140.5 -61.5q73 0 116.5 38
t52.5 100h-149v122h289v-73q0 -141 -85 -226t-224 -85z" />
    <glyph glyph-name="gcaron" unicode="&#x1e7;" 
d="M353 585h-148l-96 139v10h108l60 -61h4l60 61h109v-10zM279 -238q-103 0 -167 52q-64 51 -65 135h131q3 -32 30.5 -52t70.5 -20q55 0 84.5 27t29.5 72v80h-4q-50 -65 -143 -65q-100 0 -157 75t-57 193q0 121 57 195q58 75 157 75q93 0 143 -65h4l14 56h120v-546
q0 -94 -69 -153q-70 -59 -179 -59zM195 150q29 -41 88 -41q60 0 87 41q28 41 28 109t-28 109q-28 43 -87 43t-87 -43q-28 -41 -28 -109q0 -67 27 -109z" />
    <glyph glyph-name="Scommaaccent" unicode="&#x218;" horiz-adv-x="632" 
d="M315 -9q-133 0 -207 63.5t-79 176.5h139q4 -57 42 -87.5t105 -30.5q142 0 142 86q0 35 -22.5 55t-73.5 31l-102 22q-104 22 -155.5 70t-51.5 134q0 89 71 143q71 55 193 55q117 0 193 -62q75 -61 77 -160h-139q-3 46 -37 72.5t-96 26.5q-59 0 -90 -20t-31 -55
q0 -56 90 -77l95 -20q109 -23 164.5 -73.5t55.5 -138.5q0 -100 -72 -155.5t-211 -55.5zM321 -215h-89v10l20 154h134v-10z" />
    <glyph glyph-name="scommaaccent" unicode="&#x219;" horiz-adv-x="511" 
d="M258 -9q-108 0 -166 49t-60 135h134q0 -32 24.5 -51.5t67.5 -19.5q41 0 63.5 13t22.5 35q0 38 -60 50l-84 16q-152 29 -152 158q0 67 56.5 110t150.5 43q96 0 154 -49q58 -48 58 -124h-132q0 30 -22 48t-60 18q-34 0 -54 -13t-20 -34q0 -36 53 -47l95 -17
q75 -15 113.5 -52t38.5 -106q0 -75 -62 -119q-61 -43 -159 -43zM257 -215h-89v10l20 154h134v-10z" />
    <glyph glyph-name="uni021A" unicode="&#x21a;" horiz-adv-x="592" 
d="M365 576v-576h-25l-26 -39q43 -2 70 -26.5t27 -62.5q0 -43 -37 -70t-101 -27q-56 0 -92 27t-36 72h82q0 -14 12.5 -22.5t32.5 -8.5t33.5 8t13.5 22q0 31 -44 31h-32l-25 31l33 65h-24v576h-206v124h550v-124h-206z" />
    <glyph glyph-name="uni021B" unicode="&#x21b;" horiz-adv-x="417" 
d="M372 117v-117h-82l-26 -39q43 -2 70 -26.5t27 -62.5q0 -43 -37 -70t-101 -27q-56 0 -92 27t-36 72h82q0 -14 12.5 -22.5t32.5 -8.5t33.5 8t13.5 22q0 31 -44 31h-32l-25 31l38 75q-95 30 -95 148v248h-85v114h90v137h129v-137h125v-114h-125v-219q0 -37 16 -53.5
t51 -16.5h60z" />
    <glyph glyph-name="uni0237" unicode="&#x237;" horiz-adv-x="254" 
d="M26 -238h-62v124h38q66 0 66 73v561h134v-589q0 -81 -47.5 -125t-128.5 -44z" />
    <glyph glyph-name="circumflex" unicode="&#x2c6;" horiz-adv-x="396" 
d="M136 585h-108v10l96 139h148l97 -139v-10h-109l-60 61h-4z" />
    <glyph glyph-name="caron" unicode="&#x2c7;" horiz-adv-x="396" 
d="M272 585h-148l-96 139v10h108l60 -61h4l60 61h109v-10z" />
    <glyph glyph-name="breve" unicode="&#x2d8;" horiz-adv-x="383" 
d="M192 585q-75 0 -116 39t-41 108h98q3 -54 59 -54q55 0 58 54h98q0 -70 -40.5 -108.5t-115.5 -38.5z" />
    <glyph glyph-name="dotaccent" unicode="&#x2d9;" horiz-adv-x="226" 
d="M186 594h-144v140h144v-140z" />
    <glyph glyph-name="ring" unicode="&#x2da;" horiz-adv-x="294" 
d="M147 569q-50 0 -83 31.5t-33 80.5t33 81t83 32q51 0 83.5 -31.5t32.5 -81.5q0 -49 -32.5 -80.5t-83.5 -31.5zM146 637q28 -2 40 21t0 46.5t-40 21.5q-27 2 -38.5 -21.5t0 -46.5t38.5 -21z" />
    <glyph glyph-name="ogonek" unicode="&#x2db;" horiz-adv-x="256" 
d="M225 -225h-64q-51 0 -91 28q-39 27 -39 77q0 88 102 136l92 -16q-38 -16 -61.5 -41t-23.5 -54q0 -43 50 -43h35v-87z" />
    <glyph glyph-name="tilde" unicode="&#x2dc;" horiz-adv-x="385" 
d="M257 588q-36 0 -68 19l-15 8q-23 13 -37 13q-30 0 -30 -38h-83v15q0 56 28.5 88t76.5 32q28 0 70 -20l15 -8q25 -14 37 -14q28 0 28 40h82v-15q0 -120 -104 -120z" />
    <glyph glyph-name="hungarumlaut" unicode="&#x2dd;" horiz-adv-x="437" 
d="M121 583h-90v10l49 143h143v-10zM303 583h-89v10l48 143h143v-10z" />
    <glyph glyph-name="uni0326" unicode="&#x326;" horiz-adv-x="0" 
d="M-101 -215h-89v10l20 154h134v-10z" />
    <glyph glyph-name="Wgrave" unicode="&#x1e80;" horiz-adv-x="937" 
d="M542 763h-100l-116 143v10h148l68 -143v-10zM349 0h-170l-163 690v10h145l104 -506h4l124 506h150l126 -506h4l104 506h144v-10l-164 -690h-170l-116 490h-4z" />
    <glyph glyph-name="wgrave" unicode="&#x1e81;" horiz-adv-x="809" 
d="M483 579h-100l-116 143v10h148l68 -143v-10zM316 0h-170l-133 510v10h133l85 -370h4l84 370h172l84 -370h4l86 370h131v-10l-132 -510h-170l-86 369h-4z" />
    <glyph glyph-name="Wacute" unicode="&#x1e82;" horiz-adv-x="937" 
d="M504 763h-100v10l69 143h147v-10zM349 0h-170l-163 690v10h145l104 -506h4l124 506h150l126 -506h4l104 506h144v-10l-164 -690h-170l-116 490h-4z" />
    <glyph glyph-name="wacute" unicode="&#x1e83;" horiz-adv-x="809" 
d="M445 579h-100v10l69 143h147v-10zM316 0h-170l-133 510v10h133l85 -370h4l84 370h172l84 -370h4l86 370h131v-10l-132 -510h-170l-86 369h-4z" />
    <glyph glyph-name="Wdieresis" unicode="&#x1e84;" horiz-adv-x="937" 
d="M434 785h-122v122h122v-122zM627 785h-121v122h121v-122zM349 0h-170l-163 690v10h145l104 -506h4l124 506h150l126 -506h4l104 506h144v-10l-164 -690h-170l-116 490h-4z" />
    <glyph glyph-name="wdieresis" unicode="&#x1e85;" horiz-adv-x="809" 
d="M375 601h-122v122h122v-122zM568 601h-121v122h121v-122zM316 0h-170l-133 510v10h133l85 -370h4l84 370h172l84 -370h4l86 370h131v-10l-132 -510h-170l-86 369h-4z" />
    <glyph glyph-name="uni1EBC" unicode="&#x1ebc;" horiz-adv-x="610" 
d="M385 768q-36 0 -68 19l-15 8q-23 13 -37 13q-30 0 -30 -38h-83v15q0 56 28.5 88t76.5 32q28 0 70 -20l15 -8q25 -14 37 -14q28 0 28 40h82v-15q0 -120 -104 -120zM564 0h-485v700h485v-123h-348v-155h317v-122h-317v-178h348v-122z" />
    <glyph glyph-name="uni1EBD" unicode="&#x1ebd;" horiz-adv-x="555" 
d="M333 588q-36 0 -68 19l-15 8q-23 13 -37 13q-30 0 -30 -38h-83v15q0 56 28.5 88t76.5 32q28 0 70 -20l15 -8q25 -14 37 -14q28 0 28 40h82v-15q0 -120 -104 -120zM283 -9q-117 0 -184 75q-67 76 -67 193t64 193q65 77 185 77q113 0 177 -72q65 -73 65 -182v-52h-354
q1 -57 30 -89t84 -32q83 0 102 60h131q-10 -73 -74 -123q-62 -48 -159 -48zM170 312h216q-2 49 -29 77t-76 28q-53 0 -81 -28t-30 -77z" />
    <glyph glyph-name="Ygrave" unicode="&#x1ef2;" horiz-adv-x="684" 
d="M424 763h-100l-116 143v10h148l68 -143v-10zM412 0h-138v282l-258 408v10h158l168 -281h4l164 281h158v-10l-256 -407v-283z" />
    <glyph glyph-name="ygrave" unicode="&#x1ef3;" horiz-adv-x="556" 
d="M361 583h-100l-116 143v10h148l68 -143v-10zM13 510v10h138l120 -380h4l124 380h144v-10l-269 -739h-144v10l79 220l-19 1z" />
    <glyph glyph-name="uni2000" unicode="&#x2000;" horiz-adv-x="487" 
 />
    <glyph glyph-name="uni2001" unicode="&#x2001;" horiz-adv-x="974" 
 />
    <glyph glyph-name="uni2002" unicode="&#x2002;" horiz-adv-x="487" 
 />
    <glyph glyph-name="uni2003" unicode="&#x2003;" horiz-adv-x="974" 
 />
    <glyph glyph-name="uni2004" unicode="&#x2004;" horiz-adv-x="324" 
 />
    <glyph glyph-name="uni2005" unicode="&#x2005;" horiz-adv-x="243" 
 />
    <glyph glyph-name="uni2006" unicode="&#x2006;" horiz-adv-x="162" 
 />
    <glyph glyph-name="uni2007" unicode="&#x2007;" horiz-adv-x="162" 
 />
    <glyph glyph-name="uni2008" unicode="&#x2008;" horiz-adv-x="121" 
 />
    <glyph glyph-name="uni2009" unicode="&#x2009;" horiz-adv-x="194" 
 />
    <glyph glyph-name="uni200A" unicode="&#x200a;" horiz-adv-x="54" 
 />
    <glyph glyph-name="uni2010" unicode="&#x2010;" horiz-adv-x="466" 
d="M386 233h-306v120h306v-120z" />
    <glyph glyph-name="uni2011" unicode="&#x2011;" horiz-adv-x="466" 
d="M386 233h-306v120h306v-120z" />
    <glyph glyph-name="figuredash" unicode="&#x2012;" horiz-adv-x="466" 
d="M386 233h-306v120h306v-120z" />
    <glyph glyph-name="endash" unicode="&#x2013;" horiz-adv-x="622" 
d="M562 233h-502v120h502v-120z" />
    <glyph glyph-name="emdash" unicode="&#x2014;" horiz-adv-x="1102" 
d="M1042 233h-982v120h982v-120z" />
    <glyph glyph-name="quoteleft" unicode="&#x2018;" horiz-adv-x="233" 
d="M103 700h103v-10l-31 -241h-149v10z" />
    <glyph glyph-name="quoteright" unicode="&#x2019;" horiz-adv-x="233" 
d="M130 449h-103v10l31 241h149v-10z" />
    <glyph glyph-name="quotesinglbase" unicode="&#x201a;" horiz-adv-x="233" 
d="M130 -141h-103v10l31 241h149v-10z" />
    <glyph glyph-name="quotedblleft" unicode="&#x201c;" horiz-adv-x="431" 
d="M103 700h103v-10l-31 -241h-149v10zM301 700h103v-10l-31 -241h-149v10z" />
    <glyph glyph-name="quotedblright" unicode="&#x201d;" horiz-adv-x="431" 
d="M130 449h-103v10l31 241h149v-10zM328 449h-103v10l31 241h149v-10z" />
    <glyph glyph-name="quotedblbase" unicode="&#x201e;" horiz-adv-x="431" 
d="M130 -141h-103v10l31 241h149v-10zM328 -141h-103v10l31 241h149v-10z" />
    <glyph glyph-name="dagger" unicode="&#x2020;" horiz-adv-x="465" 
d="M291 578h110v-107h-110v-135l-17 -165h-83l-17 165v135h-110v107h110v122h117v-122z" />
    <glyph glyph-name="daggerdbl" unicode="&#x2021;" horiz-adv-x="465" 
d="M401 471h-115l-12 -121l13 -120h114v-108h-110v-122h-117v122h-110v108h114l13 120l-12 121h-115v107h110v122h117v-122h110v-107z" />
    <glyph glyph-name="bullet" unicode="&#x2022;" horiz-adv-x="386" 
d="M193 156q-63 0 -98 37t-35 101q0 62 35 98.5t98 36.5q62 0 97.5 -37t35.5 -98q0 -63 -35.5 -100.5t-97.5 -37.5z" />
    <glyph glyph-name="ellipsis" unicode="&#x2026;" horiz-adv-x="827" 
d="M195 0h-148v143h148v-143zM488 0h-148v143h148v-143zM779 0h-148v143h148v-143z" />
    <glyph glyph-name="uni202F" unicode="&#x202f;" horiz-adv-x="194" 
 />
    <glyph glyph-name="perthousand" unicode="&#x2030;" horiz-adv-x="1218" 
d="M328 398q-42 -50 -118 -50q-75 0 -119 50q-42 50 -42 132t42 132q44 50 119 50q76 0 118 -50q43 -49 43 -132t-43 -132zM241 0h-114v10l474 690h112v-10zM143 530q0 -94 67 -94t67 94t-67 94t-67 -94zM755 41q-42 -50 -118 -50q-75 0 -119 50q-42 49 -42 132t42 132
q44 50 119 50q76 0 118 -50q43 -49 43 -132t-43 -132zM1127 41q-44 -50 -119 -50t-119 50q-42 49 -42 132t42 132q44 50 119 50t119 -50q43 -49 43 -132t-43 -132zM570 173q0 -94 67 -94t67 94t-67 94t-67 -94zM1008 79q67 0 67 94t-67 94q-66 0 -66 -94t66 -94z" />
    <glyph glyph-name="guilsinglleft" unicode="&#x2039;" horiz-adv-x="356" 
d="M318 66h-126l-166 212v10l166 212h126v-10l-140 -207l140 -207v-10z" />
    <glyph glyph-name="guilsinglright" unicode="&#x203a;" horiz-adv-x="356" 
d="M165 66h-126v10l140 207l-140 207v10h126l166 -212v-10z" />
    <glyph glyph-name="fraction" unicode="&#x2044;" horiz-adv-x="552" 
d="M119 -100h-129v10l445 890h127v-10z" />
    <glyph glyph-name="uni205F" unicode="&#x205f;" horiz-adv-x="243" 
 />
    <glyph glyph-name="Euro" unicode="&#x20ac;" horiz-adv-x="753" 
d="M413 115q69 0 110 35.5t53 97.5h139q-12 -112 -94 -185q-81 -72 -208 -72q-122 0 -202.5 61.5t-111.5 170.5h-60v90h45q-1 8 -1 36q0 22 1 29h-45v90h58q28 113 110 177t206 64q129 0 211 -75t91 -189h-140q-6 63 -48 101t-114 38q-127 0 -171 -116h226l-20 -90h-224
q-1 -6 -1 -29q0 -28 1 -36h209l-20 -90h-168q43 -108 168 -108z" />
    <glyph glyph-name="uni2116" unicode="&#x2116;" horiz-adv-x="1158" 
d="M902 709q83 0 130.5 -52t47.5 -137q0 -86 -46.5 -137.5t-131.5 -51.5t-131.5 51.5t-46.5 137.5q0 85 47.5 137t130.5 52zM214 0h-135v700h159l286 -486h4v486h136v-700h-160l-286 483h-4v-483zM902 424q74 0 74 96t-74 96q-75 0 -75 -96t75 -96zM1064 188h-320v100h320
v-100z" />
    <glyph glyph-name="trademark" unicode="&#x2122;" horiz-adv-x="731" 
d="M205 373h-77v257h-97v70h270v-70h-96v-257zM419 373h-72v327h85l92 -153h3l90 153h85v-327h-72v210h-3l-96 -156h-10l-99 158h-3v-212z" />
    <glyph glyph-name="minus" unicode="&#x2212;" horiz-adv-x="490" 
d="M485 256h-480v114h480v-114z" />
    <glyph glyph-name="notequal" unicode="&#x2260;" horiz-adv-x="490" 
d="M485 468v-114h-163l-59 -97h222v-115h-291l-33 -55h-93v10l27 45h-90v115h159l59 97h-218v114h286l38 63h93v-10l-32 -53h95z" />
    <glyph glyph-name="lessequal" unicode="&#x2264;" horiz-adv-x="520" 
d="M485 284v-124l-449 163v135l449 163v-124l-322 -104v-4zM485 1h-449v115h449v-115z" />
    <glyph glyph-name="greaterequal" unicode="&#x2265;" horiz-adv-x="520" 
d="M485 323l-449 -163v124l322 105v4l-322 104v124l449 -163v-135zM485 1h-449v115h449v-115z" />
    <glyph glyph-name="uni25FC" unicode="&#x25fc;" horiz-adv-x="520" 
d="M0 0v520h520v-520h-520z" />
    <glyph glyph-name="NULL" horiz-adv-x="0" 
 />
    <glyph glyph-name="CR" horiz-adv-x="333" 
 />
    <glyph glyph-name="i.loclTRK" horiz-adv-x="247" 
d="M201 594h-144v140h144v-140zM195 0h-134v520h134v-520z" />
    <glyph glyph-name="a.ss01" 
d="M246 -9q-100 0 -157 75t-57 194t57 194t157 75q93 0 143 -65h4l14 56h120v-520h-120l-13 56h-4q-47 -65 -144 -65zM168 260q0 -70 29 -110.5t86 -40.5t86 40.5t29 110.5t-28.5 110.5t-86.5 40.5t-86.5 -40t-28.5 -111z" />
    <glyph glyph-name="aacute.ss01" 
d="M322 583h-100v10l69 143h147v-10zM246 -9q-100 0 -157 75t-57 194t57 194t157 75q93 0 143 -65h4l14 56h120v-520h-120l-13 56h-4q-47 -65 -144 -65zM168 260q0 -70 29 -110.5t86 -40.5t86 40.5t29 110.5t-28.5 110.5t-86.5 40.5t-86.5 -40t-28.5 -111z" />
    <glyph glyph-name="abreve.ss01" 
d="M285 585q-75 0 -116 39t-41 108h98q3 -54 59 -54q55 0 58 54h98q0 -70 -40.5 -108.5t-115.5 -38.5zM246 -9q-100 0 -157 75t-57 194t57 194t157 75q93 0 143 -65h4l14 56h120v-520h-120l-13 56h-4q-47 -65 -144 -65zM168 260q0 -70 29 -110.5t86 -40.5t86 40.5t29 110.5
t-28.5 110.5t-86.5 40.5t-86.5 -40t-28.5 -111z" />
    <glyph glyph-name="uni01CE.ss01" 
d="M361 585h-148l-96 139v10h108l60 -61h4l60 61h109v-10zM246 -9q-100 0 -157 75t-57 194t57 194t157 75q93 0 143 -65h4l14 56h120v-520h-120l-13 56h-4q-47 -65 -144 -65zM168 260q0 -70 29 -110.5t86 -40.5t86 40.5t29 110.5t-28.5 110.5t-86.5 40.5t-86.5 -40
t-28.5 -111z" />
    <glyph glyph-name="acircumflex.ss01" 
d="M226 585h-108v10l96 139h148l97 -139v-10h-109l-60 61h-4zM246 -9q-100 0 -157 75t-57 194t57 194t157 75q93 0 143 -65h4l14 56h120v-520h-120l-13 56h-4q-47 -65 -144 -65zM168 260q0 -70 29 -110.5t86 -40.5t86 40.5t29 110.5t-28.5 110.5t-86.5 40.5t-86.5 -40
t-28.5 -111z" />
    <glyph glyph-name="adieresis.ss01" 
d="M252 605h-122v122h122v-122zM445 605h-121v122h121v-122zM246 -9q-100 0 -157 75t-57 194t57 194t157 75q93 0 143 -65h4l14 56h120v-520h-120l-13 56h-4q-47 -65 -144 -65zM168 260q0 -70 29 -110.5t86 -40.5t86 40.5t29 110.5t-28.5 110.5t-86.5 40.5t-86.5 -40
t-28.5 -111z" />
    <glyph glyph-name="agrave.ss01" 
d="M360 583h-100l-116 143v10h148l68 -143v-10zM246 -9q-100 0 -157 75t-57 194t57 194t157 75q93 0 143 -65h4l14 56h120v-520h-120l-13 56h-4q-47 -65 -144 -65zM168 260q0 -70 29 -110.5t86 -40.5t86 40.5t29 110.5t-28.5 110.5t-86.5 40.5t-86.5 -40t-28.5 -111z" />
    <glyph glyph-name="amacron.ss01" 
d="M431 610h-288v102h288v-102zM246 -9q-100 0 -157 75t-57 194t57 194t157 75q93 0 143 -65h4l14 56h120v-520h-120l-13 56h-4q-47 -65 -144 -65zM168 260q0 -70 29 -110.5t86 -40.5t86 40.5t29 110.5t-28.5 110.5t-86.5 40.5t-86.5 -40t-28.5 -111z" />
    <glyph glyph-name="aogonek.ss01" 
d="M393 464l14 56h120v-520h-1q-38 -16 -61.5 -41t-23.5 -54q0 -43 50 -43h35v-87h-64q-51 0 -91 28q-39 27 -39 77q0 76 75 121l-13 55h-4q-47 -65 -144 -65q-100 0 -157 75t-57 194t57 194t157 75q93 0 143 -65h4zM168 260q0 -70 29 -110.5t86 -40.5t86 40.5t29 110.5
t-28.5 110.5t-86.5 40.5t-86.5 -40t-28.5 -111z" />
    <glyph glyph-name="aring.ss01" 
d="M285 569q-50 0 -83 31.5t-33 80.5t33 81t83 32q51 0 83.5 -31.5t32.5 -81.5q0 -49 -32.5 -80.5t-83.5 -31.5zM284 637q28 -2 40 21t0 46.5t-40 21.5q-27 2 -38.5 -21.5t0 -46.5t38.5 -21zM246 -9q-100 0 -157 75t-57 194t57 194t157 75q93 0 143 -65h4l14 56h120v-520
h-120l-13 56h-4q-47 -65 -144 -65zM168 260q0 -70 29 -110.5t86 -40.5t86 40.5t29 110.5t-28.5 110.5t-86.5 40.5t-86.5 -40t-28.5 -111z" />
    <glyph glyph-name="atilde.ss01" 
d="M337 588q-36 0 -68 19l-15 8q-23 13 -37 13q-30 0 -30 -38h-83v15q0 56 28.5 88t76.5 32q28 0 70 -20l15 -8q25 -14 37 -14q28 0 28 40h82v-15q0 -120 -104 -120zM246 -9q-100 0 -157 75t-57 194t57 194t157 75q93 0 143 -65h4l14 56h120v-520h-120l-13 56h-4
q-47 -65 -144 -65zM168 260q0 -70 29 -110.5t86 -40.5t86 40.5t29 110.5t-28.5 110.5t-86.5 40.5t-86.5 -40t-28.5 -111z" />
    <glyph glyph-name="caron.Slovak" horiz-adv-x="200" 
d="M121 530h-88v170h134v-10z" />
    </font>
</defs>
</svg>
